All the Money in the World (2017)

Posted By: Without
SD / CAMRip IMDb
All the Money in the World (2017)

All the Money in the World (2017)
CAMRip | MP4 | 720x336 | AVC@1852 kb/s | English AAC@119 kb/s | 2 channels | 2 h 6 min | 1.75 GB
Genre: Biography, Crime, Drama

The story of the kidnapping of 16-year-old John Paul Getty III and the desperate attempt by his devoted mother to convince his billionaire grandfather Jean Paul Getty to pay the ransom.



General
All.the.Money.in.the.World.2017.CAM.AAC.x264-THESTiG.mp4
Format : MPEG-4
Format profile : Base Media
Codec ID : isom (isom)
File size : 1.75 GiB
Duration : 2 h 6 min
Overall bit rate mode : Variable
Overall bit rate : 1 975 kb/s
Encoded date : UTC 2018-01-14 19:48:15
Tagged date : UTC 2018-01-14 19:48:15

Video
ID : 1
Format : AVC
Format/Info : Advanced Video Codec
Format profile : High@L4.1
Format settings, CABAC : Yes
Format settings, ReFrames : 3 frames
Codec ID : avc1
Codec ID/Info : Advanced Video Coding
Duration : 2 h 6 min
Bit rate mode : Variable
Bit rate : 1 852 kb/s
Maximum bit rate : 40.0 Mb/s
Width : 720 pixels
Height : 336 pixels
Display aspect ratio : 2.143
Frame rate mode : Constant
Frame rate : 29.970 (30000/1001) FPS
Color space : YUV
Chroma subsampling : 4:2:0
Bit depth : 8 bits
Scan type : Progressive
Bits/(Pixel*Frame) : 0.255
Stream size : 1.64 GiB (94%)
Writing library : x264 core 152 r2851 ba24899
Encoding settings : cabac=1 / ref=4 / deblock=1:-1:-1 / analyse=0x3:0x113 / me=umh / subme=9 / psy=1 / psy_rd=1.00:0.15 / mixed_ref=1 / me_range=18 / chroma_me=1 / trellis=2 / 8x8dct=1 / cqm=0 / deadzone=21,11 / fast_pskip=0 / chroma_qp_offset=-3 / threads=6 / lookahead_threads=1 / sliced_threads=0 / slices=4 / nr=0 / decimate=1 / interlaced=0 / bluray_compat=0 / constrained_intra=0 / bframes=3 / b_pyramid=1 / b_adapt=2 / b_bias=0 / direct=1 / weightb=1 / open_gop=0 / weightp=0 / keyint=29 / keyint_min=2 / scenecut=40 / intra_refresh=0 / rc_lookahead=29 / rc=2pass / mbtree=1 / bitrate=1852 / ratetol=1.0 / qcomp=0.60 / qpmin=10 / qpmax=51 / qpstep=4 / cplxblur=20.0 / qblur=0.5 / vbv_maxrate=40000 / vbv_bufsize=30000 / nal_hrd=vbr / filler=0 / ip_ratio=1.40 / aq=1:1.00
Encoded date : UTC 2018-01-14 14:27:12
Tagged date : UTC 2018-01-14 19:49:30
Color range : Full
Color primaries : BT.709
Transfer characteristics : BT.709
Matrix coefficients : BT.709

Audio
ID : 2
Format : AAC
Format/Info : Advanced Audio Codec
Format profile : LC
Codec ID : 40
Duration : 2 h 6 min
Bit rate mode : Variable
Bit rate : 119 kb/s
Maximum bit rate : 142 kb/s
Channel(s) : 2 channels
Channel positions : Front: L R
Sampling rate : 48.0 kHz
Frame rate : 46.875 FPS (1024 spf)
Compression mode : Lossy
Stream size : 108 MiB (6%)
Encoded date : UTC 2018-01-14 19:13:41
Tagged date : UTC 2018-01-14 19:49:30


CAMRip Screenshots

All the Money in the World (2017)

All the Money in the World (2017)

All the Money in the World (2017)

All the Money in the World (2017)

All the Money in the World (2017)

All the Money in the World (2017)

All the Money in the World (2017)


Come Visit My Blog (•‿•)