Subcategories

Am Abend aller Tage (2017)

Posted By: Rare-1
Am Abend aller Tage (2017)

Am Abend aller Tage (2017)
HDTVRip | MKV | 1280 x 720 | AVC @ 2601 Kbps | 88 min | 1.90 Gb
Audio: German AC3 2.0 @ 448 Kbps | Subs: English (.srt)
Genre: Drama, Arthouse | Germany

On behalf of anonymous business clients, Philipp Keyser is trying to track down a missing painting. This is his chance to get back on his feet professionally. As a result, he has no qualms about using the young painter Alma in order to get closer to the painting’s owner. His search for the painting and the closeness to Alma, however, draw him into a vortex in which love and guilt are dangerously intermingled and at the center of which a picture shimmers – which might not even exist …

IMDB

Director: Dominik Graf
Writer: Markus Busch
Actors: Angelika Fink, Walter Hess, Wolfgang Hinze, Ernst Jacobi
Rated: N/A
Runtime: 88 min

Am Abend aller Tage (2017)

Am Abend aller Tage (2017)

Am Abend aller Tage (2017)

Am Abend aller Tage (2017)


Am Abend aller Tage (2017)



General
Unique ID : 182205165611305686031654540539314969588 (0x8913703E14CDB0C9BDB5B9FAAFD21BF4)
Complete name : I:\HDNLUF037\Filmmittwoch im Ersten Am Abend Aller Tage 2017 GERMAN 720p HDTV x264-CDD\cdd-fmie_aaat_720p_hdtv_x264.mkv
Format : Matroska
Format version : Version 4 / Version 2
File size : 1.90 GiB
Duration : 1 h 28 min
Overall bit rate : 3 055 kb/s
Encoded date : UTC 2017-06-01 09:28:29
Writing application : mkvmerge v12.0.0 ('Trust / Lust') 64bit
Writing library : libebml v1.3.4 + libmatroska v1.4.5

Video
ID : 1
Format : AVC
Format/Info : Advanced Video Codec
Format profile : High@L4.1
Format settings, CABAC : Yes
Format settings, ReFrames : 5 frames
Codec ID : V_MPEG4/ISO/AVC
Duration : 1 h 28 min
Bit rate : 2 601 kb/s
Width : 1 280 pixels
Height : 720 pixels
Display aspect ratio : 16:9
Frame rate mode : Constant
Frame rate : 25.000 FPS
Color space : YUV
Chroma subsampling : 4:2:0
Bit depth : 8 bits
Scan type : Progressive
Bits/(Pixel*Frame) : 0.113
Stream size : 1.61 GiB (85%)
Writing library : x264 core 150 r2829 d1fe6fd
Encoding settings : cabac=1 / ref=5 / deblock=1:0:0 / analyse=0x3:0x113 / me=umh / subme=7 / psy=1 / psy_rd=1.00:0.00 / mixed_ref=1 / me_range=16 / chroma_me=1 / trellis=1 / 8x8dct=1 / cqm=0 / deadzone=21,11 / fast_pskip=0 / chroma_qp_offset=-2 / threads=12 / lookahead_threads=2 / sliced_threads=0 / nr=0 / decimate=1 / interlaced=0 / bluray_compat=0 / constrained_intra=0 / bframes=3 / b_pyramid=2 / b_adapt=1 / b_bias=0 / direct=1 / weightb=1 / open_gop=0 / weightp=2 / keyint=250 / keyint_min=25 / scenecut=40 / intra_refresh=0 / rc_lookahead=40 / rc=crf / mbtree=1 / crf=19.0 / qcomp=0.60 / qpmin=0 / qpmax=69 / qpstep=4 / ip_ratio=1.40 / aq=1:1.00
Language : German
Default : Yes
Forced : No

Audio
ID : 2
Format : AC-3
Format/Info : Audio Coding 3
Mode extension : CM (complete main)
Format settings, Endianness : Big
Codec ID : A_AC3
Duration : 1 h 28 min
Bit rate mode : Constant
Bit rate : 448 kb/s
Channel(s) : 2 channels
Channel positions : Front: L R
Sampling rate : 48.0 kHz
Frame rate : 31.250 FPS (1536 spf)
Bit depth : 16 bits
Compression mode : Lossy
Stream size : 285 MiB (15%)
Language : German
Default : Yes
Forced : No

Text
ID : 3
Format : S_DVBSUB
Muxing mode : zlib
Codec ID : S_DVBSUB
Duration : 1 h 28 min
Bit rate : 4 469 b/s
Count of elements : 1739
Stream size : 2.83 MiB (0%)
Language : German
Default : No
Forced : No


Many Thanks to Original uploader.


For More Rare Movies Check out my blog!


Download Links :

No Mirrors Please