PBS - American Experience: The Secret of Tuxedo Park (2018)

Posted By: notbanned
720p (HD) / HDTV
PBS - American Experience: The Secret of Tuxedo Park (2018)

PBS - American Experience: The Secret of Tuxedo Park (2018)
HDTV | 1280x720 | .MKV/AVC @ 2856 Kbps | 52 min 27 s | 1.19 GiB
Audio: English AC3 384 kbps, 6 channels | Subs: None
Genre: Documentary

In the fall of 1940, British Prime Minister Winston Churchill ordered a small team of scientists on a clandestine transatlantic mission to deliver his country's most valuable military secret - a revolutionary radar component - not to the U.S. government, but to a mysterious Wall Street tycoon, Alfred Lee Loomis. Using his connections, his money, and his brilliant scientific mind, Loomis and his team of scientists developed radar technology that would arguably play a more decisive role than any other weapon in the war. The Secret of Tuxedo Park tells a long-overlooked story of an individual who helped alter the course of history in World War II.

General
Unique ID : 188536921085348282097532541704674440262 (0x8DD6E3E3C2703B3762172195AC577446)
Complete name : American.Experience.S30E02.The.Secret.of.Tuxedo.Park.720p.mkv
Format : Matroska
Format version : Version 4 / Version 2
File size : 1.19 GiB
Duration : 52 min 27 s
Overall bit rate : 3 242 kb/s

Video
ID : 1
Format : AVC
Format/Info : Advanced Video Codec
Format profile : High@L4.1
Format settings, CABAC : Yes
Format settings, ReFrames : 5 frames
Codec ID : V_MPEG4/ISO/AVC
Duration : 52 min 27 s
Bit rate : 2 856 kb/s
Width : 1 280 pixels
Height : 720 pixels
Display aspect ratio : 16:9
Frame rate mode : Constant
Frame rate : 29.970 (30000/1001) FPS
Color space : YUV
Chroma subsampling : 4:2:0
Bit depth : 8 bits
Scan type : Progressive
Bits/(Pixel*Frame) : 0.103
Stream size : 1.05 GiB (88%)
Writing library : x264 core 148 r2708 86b7198
Encoding settings : cabac=1 / ref=5 / deblock=1:-3:-3 / analyse=0x3:0x133 / me=umh / subme=10 / psy=1 / psy_rd=1.00:0.00 / mixed_ref=1 / me_range=32 / chroma_me=1 / trellis=2 / 8x8dct=1 / cqm=0 / deadzone=21,11 / fast_pskip=0 / chroma_qp_offset=-2 / threads=3 / lookahead_threads=1 / sliced_threads=0 / nr=0 / decimate=0 / interlaced=0 / bluray_compat=0 / constrained_intra=0 / bframes=3 / b_pyramid=2 / b_adapt=2 / b_bias=0 / direct=3 / weightb=1 / open_gop=0 / weightp=2 / keyint=300 / keyint_min=30 / scenecut=40 / intra_refresh=0 / rc_lookahead=50 / rc=crf / mbtree=0 / crf=19.0 / qcomp=0.60 / qpmin=0 / qpmax=69 / qpstep=4 / vbv_maxrate=62500 / vbv_bufsize=78125 / crf_max=0.0 / nal_hrd=none / filler=0 / ip_ratio=1.40 / pb_ratio=1.30 / aq=2:1.00
Language : English
Default : Yes
Forced : No
Color range : Limited
Color primaries : BT.709
Transfer characteristics : BT.709
Matrix coefficients : BT.709

Audio
ID : 2
Format : AC-3
Format/Info : Audio Coding 3
Format settings, Endianness : Big
Codec ID : A_AC3
Duration : 52 min 27 s
Bit rate mode : Constant
Bit rate : 384 kb/s
Channel(s) : 6 channels
Channel positions : Front: L C R, Side: L R, LFE
Sampling rate : 48.0 kHz
Frame rate : 31.250 FPS (1536 spf)
Bit depth : 16 bits
Compression mode : Lossy
Delay relative to video : 919 ms
Stream size : 144 MiB (12%)
Language : English
Service kind : Complete Main
Default : Yes
Forced : No


Screenshots:

PBS - American Experience: The Secret of Tuxedo Park (2018)

PBS - American Experience: The Secret of Tuxedo Park (2018)

PBS - American Experience: The Secret of Tuxedo Park (2018)

PBS - American Experience: The Secret of Tuxedo Park (2018)