Subcategories

American Beach House (2015)

Posted By: JohnSmith
American Beach House (2015)

American Beach House (2015)
BRRip | MKV / AVC@1481 kb/s | 720x400 | 1h 32mn | 1.46 GB | English / German: AC3, 384 kb/s (6 ch) | Subtiltes: German (forced)
BDRip 1080p | MKV / AVC@7817 kb/s | 1920x1080 | 1h 32mn | 6.19 GB | English / German: DTS, 768 kb/s (6 ch) | Subtiltes: German (forced)
Genre: Comedy

What happens when six lucky strangers, three handsome young guys and three beautiful sexy young women, from all over the world, win a random contest– an all expenses paid trip to an amazing beach house in glamorous Malibu, California, thanks to a big Internet company–only to discover they have to share it with each other.




General
Unique ID : 211381304020662188326525462424195771057 (0x9F068EED62751EE3829228DF8DD92AB1)
Complete name : C:\Users\Administrator\Desktop\American.Beach.House.2015.BRRip.mkv
Format : Matroska
Format version : Version 4 / Version 2
File size : 1.46 GiB
Duration : 1h 32mn
Overall bit rate : 2 251 Kbps
Encoded date : UTC 2015-08-07 17:59:49
Writing application : mkvmerge v6.9.1 ('Blue Panther') 64bit built on Apr 18 2014 18:23:38
Writing library : libebml v1.3.0 + libmatroska v1.4.1

Video
ID : 1
Format : AVC
Format/Info : Advanced Video Codec
Format profile : Main@L3.1
Format settings, CABAC : Yes
Format settings, ReFrames : 4 frames
Codec ID : V_MPEG4/ISO/AVC
Duration : 1h 32mn
Bit rate : 1 481 Kbps
Width : 720 pixels
Height : 400 pixels
Display aspect ratio : 16:9
Frame rate mode : Constant
Frame rate : 23.976 fps
Color space : YUV
Chroma subsampling : 4:2:0
Bit depth : 8 bits
Scan type : Progressive
Bits/(Pixel*Frame) : 0.214
Stream size : 955 MiB (64%)
Writing library : x264 core 144 r2525 40bb568
Encoding settings : cabac=1 / ref=2 / deblock=1:0:0 / analyse=0x1:0x111 / me=hex / subme=4 / psy=1 / psy_rd=1.00:0.00 / mixed_ref=0 / me_range=16 / chroma_me=1 / trellis=1 / 8x8dct=0 / cqm=0 / deadzone=21,11 / fast_pskip=1 / chroma_qp_offset=0 / threads=12 / lookahead_threads=3 / sliced_threads=0 / nr=0 / decimate=1 / interlaced=0 / bluray_compat=0 / constrained_intra=0 / bframes=3 / b_pyramid=2 / b_adapt=1 / b_bias=0 / direct=1 / weightb=1 / open_gop=0 / weightp=1 / keyint=240 / keyint_min=24 / scenecut=40 / intra_refresh=0 / rc_lookahead=20 / rc=2pass / mbtree=1 / bitrate=1481 / ratetol=1.0 / qcomp=0.60 / qpmin=0 / qpmax=69 / qpstep=4 / cplxblur=20.0 / qblur=0.5 / vbv_maxrate=14000 / vbv_bufsize=14000 / nal_hrd=none / filler=0 / ip_ratio=1.40 / aq=1:1.00
Default : Yes
Forced : No
Color range : Limited
Color primaries : BT.709
Transfer characteristics : BT.709
Matrix coefficients : BT.709

Audio #1
ID : 2
Format : AC-3
Format/Info : Audio Coding 3
Mode extension : CM (complete main)
Format settings, Endianness : Big
Codec ID : A_AC3
Duration : 1h 32mn
Bit rate mode : Constant
Bit rate : 384 Kbps
Channel(s) : 6 channels
Channel positions : Front: L C R, Side: L R, LFE
Sampling rate : 48.0 KHz
Compression mode : Lossy
Delay relative to video : -83ms
Stream size : 255 MiB (17%)
Language : English
Default : Yes
Forced : No

Audio #2
ID : 3
Format : AC-3
Format/Info : Audio Coding 3
Mode extension : CM (complete main)
Format settings, Endianness : Big
Codec ID : A_AC3
Duration : 1h 32mn
Bit rate mode : Constant
Bit rate : 384 Kbps
Channel(s) : 6 channels
Channel positions : Front: L C R, Side: L R, LFE
Sampling rate : 48.0 KHz
Compression mode : Lossy
Delay relative to video : -83ms
Stream size : 255 MiB (17%)
Language : German
Default : No
Forced : No

Text
ID : 4
Format : UTF-8
Codec ID : S_TEXT/UTF8
Codec ID/Info : UTF-8 Plain Text
Title : Forced
Language : German
Default : No
Forced : No

Menu
00:00:00.000 : :00:00:00.000
00:02:36.322 : :00:02:36.156
00:09:53.801 : :00:09:53.593
00:19:17.239 : :00:19:17.156
00:27:59.761 : :00:27:59.678
00:38:05.449 : :00:38:05.283
00:43:44.788 : :00:43:44.622
00:51:57.698 : :00:51:57.531
00:59:49.752 : :00:59:49.586
01:09:39.258 : :01:09:39.175
01:19:45.864 : :01:19:45.781
01:28:00.441 : :01:28:00.275



General
Unique ID : 177527234787632628931788814693043460170 (0x858E80722CDF1F359EA2292FC5A2D84A)
Complete name : C:\Users\Administrator\Desktop\American.Beach.House.2015.BDRip.1080p.mkv
Format : Matroska
Format version : Version 4 / Version 2
File size : 6.19 GiB
Duration : 1h 32mn
Overall bit rate : 9 543 Kbps
Encoded date : UTC 2015-08-07 17:44:09
Writing application : mkvmerge v6.9.1 ('Blue Panther') 64bit built on Apr 18 2014 18:23:38
Writing library : libebml v1.3.0 + libmatroska v1.4.1

Video
ID : 1
Format : AVC
Format/Info : Advanced Video Codec
Format profile : High@L4.1
Format settings, CABAC : Yes
Format settings, ReFrames : 4 frames
Codec ID : V_MPEG4/ISO/AVC
Duration : 1h 32mn
Bit rate : 7 817 Kbps
Width : 1 920 pixels
Height : 1 080 pixels
Display aspect ratio : 16:9
Frame rate mode : Constant
Frame rate : 23.976 fps
Color space : YUV
Chroma subsampling : 4:2:0
Bit depth : 8 bits
Scan type : Progressive
Bits/(Pixel*Frame) : 0.157
Stream size : 5.07 GiB (82%)
Writing library : x264 core 148 r2579 73ae2d1
Encoding settings : cabac=1 / ref=4 / deblock=1:-1:-1 / analyse=0x3:0x133 / me=umh / subme=7 / psy=1 / psy_rd=1.00:0.15 / mixed_ref=1 / me_range=16 / chroma_me=1 / trellis=1 / 8x8dct=1 / cqm=0 / deadzone=21,11 / fast_pskip=0 / chroma_qp_offset=-3 / threads=8 / lookahead_threads=1 / sliced_threads=0 / nr=0 / decimate=1 / interlaced=0 / bluray_compat=0 / constrained_intra=0 / bframes=3 / b_pyramid=2 / b_adapt=1 / b_bias=0 / direct=1 / weightb=1 / open_gop=0 / weightp=2 / keyint=250 / keyint_min=23 / scenecut=40 / intra_refresh=0 / rc_lookahead=40 / rc=crf / mbtree=1 / crf=20.0 / qcomp=0.60 / qpmin=0 / qpmax=69 / qpstep=4 / ip_ratio=1.40 / aq=1:1.00
Default : Yes
Forced : No

Audio #1
ID : 2
Format : DTS
Format/Info : Digital Theater Systems
Mode : 16
Format settings, Endianness : Big
Codec ID : A_DTS
Duration : 1h 32mn
Bit rate mode : Constant
Bit rate : 768 Kbps
Channel(s) : 6 channels
Channel positions : Front: L C R, Side: L R, LFE
Sampling rate : 48.0 KHz
Bit depth : 16 bits
Compression mode : Lossy
Stream size : 510 MiB (8%)
Language : English
Default : Yes
Forced : No

Audio #2
ID : 3
Format : DTS
Format/Info : Digital Theater Systems
Mode : 16
Format settings, Endianness : Big
Codec ID : A_DTS
Duration : 1h 32mn
Bit rate mode : Constant
Bit rate : 768 Kbps
Channel(s) : 6 channels
Channel positions : Front: L C R, Side: L R, LFE
Sampling rate : 48.0 KHz
Bit depth : 16 bits
Compression mode : Lossy
Stream size : 510 MiB (8%)
Language : German
Default : No
Forced : No

Text
ID : 4
Format : UTF-8
Codec ID : S_TEXT/UTF8
Codec ID/Info : UTF-8 Plain Text
Title : Forced
Language : German
Default : No
Forced : No

Menu
00:00:00.000 : en:00:00:00.000
00:02:36.156 : en:00:02:36.156
00:09:53.593 : en:00:09:53.593
00:19:17.156 : en:00:19:17.156
00:27:59.678 : en:00:27:59.678
00:38:05.283 : en:00:38:05.283
00:43:44.622 : en:00:43:44.622
00:51:57.531 : en:00:51:57.531
00:59:49.586 : en:00:59:49.586
01:09:39.175 : en:01:09:39.175
01:19:45.781 : en:01:19:45.781
01:28:00.275 : en:01:28:00.275


Screenshots BRRip

American Beach House (2015)

American Beach House (2015)

American Beach House (2015)


Screenshots BDRip 1080p

American Beach House (2015)

American Beach House (2015)

American Beach House (2015)