American Horror Story S07E01 (2017)

Posted By: Without
American Horror Story S07E01 (2017)

American Horror Story S07E01 (2017)
WEB-DL 720p | MKV | 1280x718 | AVC@3939 kb/s | English AC3@384 kb/s
Subs: English | 6 channels | 48 min 35 s | 1.50 GB
WEB-DL 1080p | MKV | 1916x1076 | AVC@4976 kb/s | English AC3@384 kb/s
Subs: English | 6 channels | 48 min 35 s | 1.86 GB
Genre: Drama, Horror, Thriller

An anthology series centering on different characters and locations, including a house with a murderous past, an asylum, a witch coven, a freak show, a hotel, a farmhouse in Roanoke and a cult.

IMDB - Won 2 Golden Globes. Another 107 wins & 300 nominations


General
American.Horror.Story.S07E01.720p.iT.WEB-DL.DD5.1.H.264-ViSUM\American.Horror.Story.S07E01.720p.iT.WEB-DL.DD5.1.H.264-ViSUM.mkv
Format : Matroska
Format version : Version 4 / Version 2
File size : 1.50 GiB
Duration : 48 min 35 s
Overall bit rate : 4 411 kb/s
Encoded date : UTC 2017-09-07 13:51:29
Writing application : mkvmerge v9.2.0 ('Photograph') 64bit
Writing library : libebml v1.3.3 + libmatroska v1.4.4
Encoded/Released by : B@BTN/HDB
Group : ViSUM

Video
ID : 2
Format : AVC
Format/Info : Advanced Video Codec
Format profile : High@L3.1
Format settings, CABAC : No
Format settings, ReFrames : 2 frames
Codec ID : V_MPEG4/ISO/AVC
Duration : 48 min 35 s
Bit rate : 3 939 kb/s
Width : 1 280 pixels
Height : 718 pixels
Display aspect ratio : 16:9
Frame rate mode : Constant
Frame rate : 23.976 (24000/1001) FPS
Color space : YUV
Chroma subsampling : 4:2:0
Bit depth : 8 bits
Scan type : Progressive
Bits/(Pixel*Frame) : 0.179
Stream size : 1.34 GiB (89%)
Default : Yes
Forced : No
Color range : Limited
Color primaries : BT.709
Transfer characteristics : BT.709
Matrix coefficients : BT.709

Audio
ID : 3
Format : AC-3
Format/Info : Audio Coding 3
Mode extension : CM (complete main)
Format settings, Endianness : Big
Codec ID : A_AC3
Duration : 48 min 35 s
Bit rate mode : Constant
Bit rate : 384 kb/s
Channel(s) : 6 channels
Channel positions : Front: L C R, Side: L R, LFE
Sampling rate : 48.0 kHz
Frame rate : 31.250 FPS (1536 spf)
Bit depth : 16 bits
Compression mode : Lossy
Delay relative to video : -22 ms
Stream size : 133 MiB (9%)
Language : English
Default : Yes
Forced : No

Text
ID : 1
Format : UTF-8
Codec ID : S_TEXT/UTF8
Codec ID/Info : UTF-8 Plain Text
Language : English
Default : No
Forced : No

General
American.Horror.Story.S07E01.1080p.iT.WEB-DL.DD5.1.H.264-ViSUM\American.Horror.Story.S07E01.1080p.iT.WEB-DL.DD5.1.H.264-ViSUM.mkv
Format : Matroska
Format version : Version 4 / Version 2
File size : 1.86 GiB
Duration : 48 min 35 s
Overall bit rate : 5 469 kb/s
Encoded date : UTC 2017-09-07 13:58:48
Writing application : mkvmerge v9.2.0 ('Photograph') 64bit
Writing library : libebml v1.3.3 + libmatroska v1.4.4
Encoded/Released by : B@BTN/HDB
Group : ViSUM

Video
ID : 1
Format : AVC
Format/Info : Advanced Video Codec
Format profile : High@L4
Format settings, CABAC : Yes
Format settings, ReFrames : 4 frames
Codec ID : V_MPEG4/ISO/AVC
Duration : 48 min 35 s
Bit rate : 4 976 kb/s
Width : 1 916 pixels
Height : 1 076 pixels
Display aspect ratio : 16:9
Frame rate mode : Constant
Frame rate : 23.976 (24000/1001) FPS
Color space : YUV
Chroma subsampling : 4:2:0
Bit depth : 8 bits
Scan type : Progressive
Bits/(Pixel*Frame) : 0.101
Stream size : 1.69 GiB (91%)
Default : Yes
Forced : No
Color range : Limited
Color primaries : BT.709
Transfer characteristics : BT.709
Matrix coefficients : BT.709

Audio
ID : 2
Format : AC-3
Format/Info : Audio Coding 3
Mode extension : CM (complete main)
Format settings, Endianness : Big
Codec ID : A_AC3
Duration : 48 min 35 s
Bit rate mode : Constant
Bit rate : 384 kb/s
Channel(s) : 6 channels
Channel positions : Front: L C R, Side: L R, LFE
Sampling rate : 48.0 kHz
Frame rate : 31.250 FPS (1536 spf)
Bit depth : 16 bits
Compression mode : Lossy
Delay relative to video : -22 ms
Stream size : 133 MiB (7%)
Language : English
Default : Yes
Forced : No

Text
ID : 3
Format : UTF-8
Codec ID : S_TEXT/UTF8
Codec ID/Info : UTF-8 Plain Text
Language : English
Default : No
Forced : No


WEB-DL 720p Screenshots

American Horror Story S07E01 (2017)

American Horror Story S07E01 (2017)

American Horror Story S07E01 (2017)


WEB-DL 1080p Screenshots

American Horror Story S07E01 (2017)

American Horror Story S07E01 (2017)

American Horror Story S07E01 (2017)


Come Visit My Blog (•‿•)