History Channel - Ancient Aliens: Beyond Roswell (2016)

Posted By: notbanned
History Channel - Ancient Aliens: Beyond Roswell (2016)

History Channel - Ancient Aliens: Beyond Roswell (2016)
HDTV | 1280x720 | .MKV/AVC @ 2530 Kbps | 42mn 0s | 893 MiB
Audio: English AC3 384 kbps, 6 channels | Subs: English
Genre: Documentary

The U.S. military has long denied that the infamous 1947 Roswell crash was anything other than a weather balloon, but FBI files released in 2011 include a memo to J. Edgar Hoover regarding the recovery of not one, but three "flying saucers." Could the U.S. government really have extraterrestrial crafts in their possession? Ancient Astronaut theorists say yes, and claim that Roswell is just the tip of the iceberg. Over a dozen other UFO crashes were reported all across the world around the same time as Roswell, and it is rumored that the wreckage from these incidents was retrieved and hidden away at secret military bases like Area 51 in Nevada, Kapustin Yar in Russia, Pine Gap in Australia, Rudloe Manor in England, and even in the remote hills of China.


General
Unique ID : 190815141791070451054731341655045025568 (0x8F8DA8D7BB1A7C6CB1BA1EBEE75FAF20)
Complete name : Ancient.Aliens.S11E13.Beyond.Roswell.720p.mkv
Format : Matroska
Format version : Version 4 / Version 2
File size : 893 MiB
Duration : 42mn 0s
Overall bit rate : 2 974 Kbps

Video
ID : 1
Format : AVC
Format/Info : Advanced Video Codec
Format profile : High@L4.1
Format settings, CABAC : Yes
Format settings, ReFrames : 5 frames
Codec ID : V_MPEG4/ISO/AVC
Duration : 42mn 0s
Bit rate : 2 530 Kbps
Width : 1 280 pixels
Height : 720 pixels
Display aspect ratio : 16:9
Frame rate mode : Constant
Frame rate : 23.976 fps
Color space : YUV
Chroma subsampling : 4:2:0
Bit depth : 8 bits
Scan type : Progressive
Bits/(Pixel*Frame) : 0.115
Stream size : 760 MiB (85%)
Writing library : x264 core 148 r2705 3f5ed56
Encoding settings : cabac=1 / ref=5 / deblock=1:0:0 / analyse=0x3:0x113 / me=umh / subme=8 / psy=1 / psy_rd=1.00:0.00 / mixed_ref=1 / me_range=16 / chroma_me=1 / trellis=1 / 8x8dct=1 / cqm=0 / deadzone=21,11 / fast_pskip=1 / chroma_qp_offset=-2 / threads=12 / lookahead_threads=2 / sliced_threads=0 / nr=0 / decimate=1 / interlaced=0 / bluray_compat=0 / constrained_intra=0 / bframes=3 / b_pyramid=2 / b_adapt=2 / b_bias=0 / direct=3 / weightb=1 / open_gop=0 / weightp=2 / keyint=250 / keyint_min=23 / scenecut=40 / intra_refresh=0 / rc_lookahead=50 / rc=crf / mbtree=1 / crf=20.0 / qcomp=0.60 / qpmin=0 / qpmax=69 / qpstep=4 / ip_ratio=1.40 / aq=1:1.00
Default : Yes
Forced : No
Color range : Limited
Matrix coefficients : BT.709

Audio
ID : 2
Format : AC-3
Format/Info : Audio Coding 3
Mode extension : CM (complete main)
Format settings, Endianness : Big
Codec ID : A_AC3
Duration : 42mn 0s
Bit rate mode : Constant
Bit rate : 384 Kbps
Channel(s) : 6 channels
Channel positions : Front: L C R, Side: L R, LFE
Sampling rate : 48.0 KHz
Compression mode : Lossy
Stream size : 115 MiB (13%)
Default : Yes
Forced : No

Text
ID : 3
Format : UTF-8
Codec ID : S_TEXT/UTF8
Codec ID/Info : UTF-8 Plain Text
Language : English
Default : No
Forced : No


Screenshots:

History Channel - Ancient Aliens: Beyond Roswell (2016)

History Channel - Ancient Aliens: Beyond Roswell (2016)

History Channel - Ancient Aliens: Beyond Roswell (2016)

History Channel - Ancient Aliens: Beyond Roswell (2016)