History Channel - Ancient Aliens: The Alien Protocols (2018)

Posted By: notbanned
720p (HD) / WEBRip IMDb
History Channel - Ancient Aliens: The Alien Protocols (2018)

History Channel - Ancient Aliens: The Alien Protocols (2018)
WEBRip | 1280x720 | .MKV/AVC @ 2493 Kbps | 42 min 12 s | 792 MiB
Audio: English AAC 128 kbps, 2 channels | Subs: None
Genre: Documentary | History | Sci-Fi

In 2017, a strange, cigar-shaped object entered our solar system from another star system traveling in such an unusual trajectory it caused some astronomers to suggest that it could be an extraterrestrial craft. It brought up an important question–will we have a plan in place for what to do if we encounter alien life?

General
Unique ID : 265395387278038898497065692186048097813 (0xC7A94AD731B43962FB201C17724E6E15)
Complete name : Ancient.Aliens.The.Alien.Protocols.720p.mkv
Format : Matroska
Format version : Version 4 / Version 2
File size : 792 MiB
Duration : 42 min 12 s
Overall bit rate : 2 623 kb/s

Video
ID : 1
Format : AVC
Format/Info : Advanced Video Codec
Format profile : Main@L3.1
Format settings, CABAC : Yes
Format settings, ReFrames : 4 frames
Codec ID : V_MPEG4/ISO/AVC
Duration : 42 min 12 s
Bit rate : 2 493 kb/s
Width : 1 280 pixels
Height : 720 pixels
Display aspect ratio : 16:9
Frame rate mode : Constant
Frame rate : 23.976 (24000/1001) FPS
Color space : YUV
Chroma subsampling : 4:2:0
Bit depth : 8 bits
Scan type : Progressive
Bits/(Pixel*Frame) : 0.113
Stream size : 752 MiB (95%)
Default : Yes
Forced : No

Audio
ID : 2
Format : AAC
Format/Info : Advanced Audio Codec
Format profile : LC
Codec ID : A_AAC
Duration : 42 min 12 s
Bit rate : 128 kb/s
Channel(s) : 2 channels
Channel positions : Front: L R
Sampling rate : 48.0 kHz
Frame rate : 46.875 FPS (1024 spf)
Compression mode : Lossy
Stream size : 38.6 MiB (5%)
Default : Yes
Forced : No


Screenshots:

History Channel - Ancient Aliens: The Alien Protocols (2018)

History Channel - Ancient Aliens: The Alien Protocols (2018)

History Channel - Ancient Aliens: The Alien Protocols (2018)

History Channel - Ancient Aliens: The Alien Protocols (2018)

History Channel - Ancient Aliens: The Alien Protocols (2018)