History Channel - Ancient Aliens: The UFO Conspiracy (2018)

Posted By: notbanned
720p (HD) / WEBRip
History Channel - Ancient Aliens: The UFO Conspiracy (2018)

History Channel - Ancient Aliens: The UFO Conspiracy (2018)
WEBRip | 1280x720 | .MKV/AVC @ 2495 Kbps | 1 h 25 min | 1.56 GiB
Audio: English AAC 128 kbps, 2 channels | Subs: None
Genre: Documentary

Ancient Aliens explores the controversial theory that extraterrestrials have visited Earth for millions of years. From the age of the dinosaurs to ancient Egypt, from early cave drawings to continued mass sightings in the US, each episode in this hit HISTORY series gives historic depth to the questions, speculations, provocative controversies, first-hand accounts and grounded theories surrounding this age old debate. Did intelligent beings from outer space visit Earth thousands of years ago? In 2017, it was revealed that the Department of Defense recently spent millions investigating reports of UFOs. This is the latest disclosure about a series of secret government UFO projects dating back decades, but many of their findings have never been released to the public. Could the truth about an extraterrestrial presence on Earth be part of a UFO Conspiracy?

General
Unique ID : 168604976116071119633302678801225926741 (0x7ED8232156CC4F47A60A0AA445C0C855)
Complete name : Ancient.Aliens.The.UFO.Conspiracy.720p.mkv
Format : Matroska
Format version : Version 4 / Version 2
File size : 1.56 GiB
Duration : 1 h 25 min
Overall bit rate : 2 625 kb/s

Video
ID : 1
Format : AVC
Format/Info : Advanced Video Codec
Format profile : Main@L3.1
Format settings, CABAC : Yes
Format settings, ReFrames : 4 frames
Codec ID : V_MPEG4/ISO/AVC
Duration : 1 h 25 min
Bit rate : 2 495 kb/s
Width : 1 280 pixels
Height : 720 pixels
Display aspect ratio : 16:9
Frame rate mode : Constant
Frame rate : 23.976 (24000/1001) FPS
Color space : YUV
Chroma subsampling : 4:2:0
Bit depth : 8 bits
Scan type : Progressive
Bits/(Pixel*Frame) : 0.113
Stream size : 1.49 GiB (95%)
Writing library : Zencoder Video Encoding System
Default : Yes
Forced : No

Audio
ID : 2
Format : AAC
Format/Info : Advanced Audio Codec
Format profile : LC
Codec ID : A_AAC
Duration : 1 h 25 min
Bit rate : 128 kb/s
Channel(s) : 2 channels
Channel positions : Front: L R
Sampling rate : 48.0 kHz
Frame rate : 46.875 FPS (1024 spf)
Compression mode : Lossy
Stream size : 78.1 MiB (5%)
Default : Yes
Forced : No


Screenshots:

History Channel - Ancient Aliens: The UFO Conspiracy (2018)

History Channel - Ancient Aliens: The UFO Conspiracy (2018)

History Channel - Ancient Aliens: The UFO Conspiracy (2018)

History Channel - Ancient Aliens: The UFO Conspiracy (2018)