Andrew Lloyd Webber's - Jesus Christ Superstar: Live Arena Tour (2012)

Posted By: RSU75
Andrew Lloyd Webber's - Jesus Christ Superstar: Live Arena Tour (2012)

Andrew Lloyd Webber's - Jesus Christ Superstar: Live Arena Tour (2012)
BDRip | MKV | AVC 1280x720, ~ 4.9 Mbps | 1hr 44mn | 5.30 GB
English: DTS, 6 ch, 1510 kbps \ AC3, 6 ch, 640 kbps \ AC3, 2 ch, 192 kbps
Subtitles: English
Genre: Music | Rock
IMDB Rating: 7.6/10 (277 votes)


Director: Laurence Connor
Writer: Tim Rice
Stars: Tim Minchin, Melanie Chisholm, Chris Moyles

Celebrating 40 years since it first opened in London’s West End, Andrew Lloyd Webber’s new production of Jesus Christ Superstar, directed by Laurence Connor, promises to be the rock event of 2012. The star-studded line-up includes award-winning musical comedian Tim Minchin for the role of Judas Iscariot. Three million album selling pop icon and former Spice Girl Melanie C will take the only female lead as Mary Magdalene. Former BBC Radio 1 Breakfast Show host Chris Moyles will make his major stage debut as King Herod and Winner of the ITV primetime show Superstar Ben Forster in the title role of Jesus in the 21st century Rock Musical re-invention of Jesus Christ Superstar.

An award-winning creative team have transformed this legendary rock musical into a unique state-of-the-art spectacular. Director Laurence Connor, known for his work on the 25th anniversary performances and concerts for Les Miserables and Phantom of the Opera, will work alongside Mark Fisher, the acclaimed world-leading set designer responsible for the staging of the Diamond Jubilee music concert in front of Buckingham Palace. They will be joined by internationally renowned lighting designer Patrick Woodroffe, who worked on the Opening and Closing Ceremonies of the London 2012 Olympic Games. Both Mark and Patrick have worked on global arena and stadium tours for some of the world’s biggest music acts including the Rolling Stones and U2.


Tracklist:
Act 1:
01 Overture
02 Heaven on Their Minds
03 What’s the Buzz?
04 Strange Thing, Mystifying
05 Everything’s Alright
06 This Jesus Must Die
07 Hosanna
08 Simon Zealotes
09 Poor Jerusalem
10 Pilate’s Dream
11 The Temple
12 I Don’t Know How to Love Him
13 Damned For All Time
14 Blood Money

Act 2:
01 The Last Supper
02 Gethsemane
03 The Arrest
04 Peter’s Denial
05 Pilate and Christ
06 King Herod’s Song
07 Could We Start Again, Please?
08 Judas’ Death
09 Trial Before Pilate
10 Superstar
11 Crucifixion
12 John 19:41



General
Unique ID : 172169660810030698744308664709042051609 (0x8186ABA7A6B03242811A7D604A069A19)
Complete name : D:\AndL.JesusChSuperstar.12.7p.mkv
Format : Matroska
Format version : Version 4 / Version 2
File size : 5.30 GiB
Duration : 1h 44mn
Overall bit rate : 7 293 Kbps
Movie name : Avaxhome
Encoded date : UTC 2014-02-27 20:45:28
Writing application : mkvmerge v6.3.0 ('You can't stop me!') built on Jun 28 2013 20:09:41
Writing library : libebml v1.3.0 + libmatroska v1.4.0

Video
ID : 1
Format : AVC
Format/Info : Advanced Video Codec
Format profile : High@L4.1
Format settings, CABAC : Yes
Format settings, ReFrames : 8 frames
Codec ID : V_MPEG4/ISO/AVC
Duration : 1h 44mn
Bit rate : 4 950 Kbps
Width : 1 280 pixels
Height : 720 pixels
Display aspect ratio : 16:9
Frame rate mode : Constant
Frame rate : 25.000 fps
Color space : YUV
Chroma subsampling : 4:2:0
Bit depth : 8 bits
Scan type : Progressive
Bits/(Pixel*Frame) : 0.215
Stream size : 3.49 GiB (66%)
Writing library : x264 core 130 r2273 b3065e6
Encoding settings : cabac=1 / ref=8 / deblock=1:-3:-3 / analyse=0x3:0x113 / me=umh / subme=11 / psy=1 / psy_rd=0.95:0.00 / mixed_ref=1 / me_range=32 / chroma_me=1 / trellis=2 / 8x8dct=1 / cqm=0 / deadzone=21,11 / fast_pskip=0 / chroma_qp_offset=-2 / threads=12 / lookahead_threads=2 / sliced_threads=0 / nr=0 / decimate=0 / interlaced=0 / bluray_compat=0 / constrained_intra=0 / bframes=9 / b_pyramid=2 / b_adapt=2 / b_bias=0 / direct=3 / weightb=1 / open_gop=0 / weightp=2 / keyint=250 / keyint_min=25 / scenecut=40 / intra_refresh=0 / rc=2pass / mbtree=0 / bitrate=4950 / ratetol=1.0 / qcomp=0.70 / qpmin=0 / qpmax=69 / qpstep=4 / cplxblur=20.0 / qblur=0.5 / ip_ratio=1.40 / pb_ratio=1.30 / aq=2:0.80
Language : English
Default : Yes
Forced : No

Audio #1
ID : 2
Format : DTS
Format/Info : Digital Theater Systems
Mode : 16
Format settings, Endianness : Big
Codec ID : A_DTS
Duration : 1h 44mn
Bit rate mode : Constant
Bit rate : 1 509 Kbps
Channel(s) : 6 channels
Channel positions : Front: L C R, Side: L R, LFE
Sampling rate : 48.0 KHz
Bit depth : 16 bits
Compression mode : Lossy
Delay relative to video : 21ms
Stream size : 1.10 GiB (21%)
Title : DTS, 6 ch, 1510 Kbps
Language : English
Default : Yes
Forced : No

Audio #2
ID : 3
Format : AC-3
Format/Info : Audio Coding 3
Mode extension : CM (complete main)
Format settings, Endianness : Big
Codec ID : A_AC3
Duration : 1h 44mn
Bit rate mode : Constant
Bit rate : 640 Kbps
Channel(s) : 6 channels
Channel positions : Front: L C R, Side: L R, LFE
Sampling rate : 48.0 KHz
Bit depth : 16 bits
Compression mode : Lossy
Delay relative to video : 21ms
Stream size : 476 MiB (9%)
Title : AC3, 6 ch, 640 Kbps
Language : English
Default : No
Forced : No

Audio #3
ID : 4
Format : AC-3
Format/Info : Audio Coding 3
Mode extension : CM (complete main)
Format settings, Endianness : Big
Codec ID : A_AC3
Duration : 1h 44mn
Bit rate mode : Constant
Bit rate : 192 Kbps
Channel(s) : 2 channels
Channel positions : Front: L R
Sampling rate : 48.0 KHz
Bit depth : 16 bits
Compression mode : Lossy
Stream size : 143 MiB (3%)
Title : AC3, 2 ch, 192 Kbps
Language : English
Default : No
Forced : No

Text
ID : 5
Format : UTF-8
Codec ID : S_TEXT/UTF8
Codec ID/Info : UTF-8 Plain Text
Language : English
Default : No
Forced : No

Menu
00:00:00.000 : en:Overture
00:04:58.798 : en:Heaven on Their Minds
00:09:31.445 : en:What’s the Buzz?
00:12:03.889 : en:Strange Thing, Mystifying
00:13:44.573 : en:Everything’s Alright
00:18:05.292 : en:This Jesus Must Die
00:21:45.762 : en:Hosanna
00:24:43.523 : en:Simon Zealotes
00:28:06.601 : en:Poor Jerusalem
00:30:09.140 : en:Pilate’s Dream
00:31:48.114 : en:The Temple
00:37:04.180 : en:I Don’t Know How to Love Him
00:37:37.797 : en:Damned For All Time
00:41:28.652 : en:Blood Money
00:47:26.468 : en:The Last Supper
00:54:46.533 : en:Gethsemane (I Only Want to Say)
01:01:26.766 : en:The Arrest
01:04:21.983 : en:Peter’s Denial
01:05:49.737 : en:Pilate and Christ
01:08:34.110 : en:King Herod’s Song
01:12:42.941 : en:Could We Start Again, Please?
01:15:27.523 : en:Judas’ Death
01:20:56.685 : en:Trial Before Pilate (including the 39 lashes)
01:27:22.779 : en:Superstar
01:31:58.513 : en:The Crucifixion
01:33:52.501 : en:John 19:41
01:36:43.756 : en:Curtain Call / Credits



Screenshots (click to enlarge to original size):

Andrew Lloyd Webber's - Jesus Christ Superstar: Live Arena Tour (2012)

Andrew Lloyd Webber's - Jesus Christ Superstar: Live Arena Tour (2012)

Andrew Lloyd Webber's - Jesus Christ Superstar: Live Arena Tour (2012)

Andrew Lloyd Webber's - Jesus Christ Superstar: Live Arena Tour (2012)

Andrew Lloyd Webber's - Jesus Christ Superstar: Live Arena Tour (2012)



–––––––––––––––––––––––––––––––––––––––-
>>> Other Music <<<
–––––––––––––––––––––––––––––––––––––––-
>>> Visit Blog RSU75 Here <<<
–––––––––––––––––––––––––––––––––––––––-
Download:





File name: AndL.JesusChSuperstar.12.7p.part01.rar File size: 251.00 MB
File name: AndL.JesusChSuperstar.12.7p.part02.rar File size: 251.00 MB
File name: AndL.JesusChSuperstar.12.7p.part03.rar File size: 251.00 MB
File name: AndL.JesusChSuperstar.12.7p.part04.rar File size: 251.00 MB
File name: AndL.JesusChSuperstar.12.7p.part05.rar File size: 251.00 MB
File name: AndL.JesusChSuperstar.12.7p.part06.rar File size: 251.00 MB
File name: AndL.JesusChSuperstar.12.7p.part07.rar File size: 251.00 MB
File name: AndL.JesusChSuperstar.12.7p.part08.rar File size: 251.00 MB
File name: AndL.JesusChSuperstar.12.7p.part09.rar File size: 251.00 MB
File name: AndL.JesusChSuperstar.12.7p.part10.rar File size: 251.00 MB
File name: AndL.JesusChSuperstar.12.7p.part11.rar File size: 251.00 MB
File name: AndL.JesusChSuperstar.12.7p.part12.rar File size: 251.00 MB
File name: AndL.JesusChSuperstar.12.7p.part13.rar File size: 251.00 MB
File name: AndL.JesusChSuperstar.12.7p.part14.rar File size: 251.00 MB
File name: AndL.JesusChSuperstar.12.7p.part15.rar File size: 251.00 MB
File name: AndL.JesusChSuperstar.12.7p.part16.rar File size: 251.00 MB
File name: AndL.JesusChSuperstar.12.7p.part17.rar File size: 251.00 MB
File name: AndL.JesusChSuperstar.12.7p.part18.rar File size: 251.00 MB
File name: AndL.JesusChSuperstar.12.7p.part19.rar File size: 251.00 MB
File name: AndL.JesusChSuperstar.12.7p.part20.rar File size: 251.00 MB
File name: AndL.JesusChSuperstar.12.7p.part21.rar File size: 251.00 MB
File name: AndL.JesusChSuperstar.12.7p.part22.rar File size: 251.00 MB
File name: AndL.JesusChSuperstar.12.7p.part23.rar File size: 188.09 MB


5% Recovery. Parts of archives are compatible. No password