Andròn: The Black Labyrinth (2015)

Posted By: Without
Andròn: The Black Labyrinth (2015)

Andròn: The Black Labyrinth (2015)
BRRip | AVI | 720x300 | XviD@1576 Kbps | English AC3@448 Kbps | 6 channels | 1h 36mn | 1.36 GB
BDRip 720p | MKV | 1280x534 | AVC@5172 Kbps | English DTS@1509 Kbps | Subs: English | 6 channels | 1h 36mn | 4.59 GB
BDRip 1080p | MKV | 1920x800 | AVC@10.8 Mbps | English DTS@1509 Kbps | Subs: English | 6 channels | 1h 36mn | 8.46 GB
Genre: Action, Sci-Fi

A group of people are plunged into a dark, claustrophobic maze, where they must fight to survive, as the outside world watches.



General
Complete name : E:\HDNLUF040\Torrent\Andron.2015.BRRip.XviD.AC3-EVO\Andron.2015.BRRip.XviD.AC3-EVO.avi
Format : AVI
Format/Info : Audio Video Interleave
Format profile : OpenDML
Format settings : rec
File size : 1.37 GiB
Duration : 1h 36mn
Overall bit rate : 2 029 Kbps
Writing application : AVI-Mux GUI 1.17.8.3, Feb 16 201019:42:50

Video
ID : 0
Format : MPEG-4 Visual
Format profile : Advanced Simple@L5
Format settings, BVOP : 2
Format settings, QPel : No
Format settings, GMC : No warppoints
Format settings, Matrix : Default (H.263)
Muxing mode : Packed bitstream
Codec ID : XVID
Codec ID/Hint : XviD
Duration : 1h 36mn
Bit rate : 1 576 Kbps
Width : 720 pixels
Height : 300 pixels
Display aspect ratio : 2.40:1
Frame rate : 23.976 (24000/1001) fps
Color space : YUV
Chroma subsampling : 4:2:0
Bit depth : 8 bits
Scan type : Progressive
Compression mode : Lossy
Bits/(Pixel*Frame) : 0.304
Stream size : 1.06 GiB (78%)
Writing library : XviD 66

Audio
ID : 1
Format : AC-3
Format/Info : Audio Coding 3
Mode extension : CM (complete main)
Format settings, Endianness : Big
Codec ID : 2000
Duration : 1h 36mn
Bit rate mode : Constant
Bit rate : 448 Kbps
Channel(s) : 6 channels
Channel positions : Front: L C R, Side: L R, LFE
Sampling rate : 48.0 KHz
Frame rate : 31.250 fps (1536 spf)
Compression mode : Lossy
Stream size : 309 MiB (22%)
Alignment : Aligned on interleaves
Interleave, duration : 64 ms (1.53 video frames)
Interleave, preload duration : 192 ms

General
Unique ID : 249399176544428380726212933976726901872 (0xBBA088C2B930F5BA98B5DC6E32831470)
Complete name : J:\Andron.2015.720p.BluRay.x264.DTS-FGT\Andron.2015.720p.BluRay.x264.DTS-FGT.mkv
Format : Matroska
Format version : Version 4 / Version 2
File size : 4.60 GiB
Duration : 1h 36mn
Overall bit rate : 6 817 Kbps
Movie name : Andron.2015.720p.BluRay.x264.DTS-FGT
Encoded date : UTC 2016-08-26 14:27:52
Writing application : mkvmerge v9.4.0 ('Knurl') 64bit
Writing library : libebml v1.3.4 + libmatroska v1.4.5
Cover : Yes
Attachments : small_cover.jpg / small_cover_land.jpg / cover.jpg / cover_land.jpg

Video
ID : 1
Format : AVC
Format/Info : Advanced Video Codec
Format profile : High@L4.1
Format settings, CABAC : Yes
Format settings, ReFrames : 4 frames
Codec ID : V_MPEG4/ISO/AVC
Duration : 1h 36mn
Bit rate : 5 172 Kbps
Nominal bit rate : 5 500 Kbps
Width : 1 280 pixels
Height : 534 pixels
Display aspect ratio : 2.40:1
Original display aspect ratio : 2.40:1
Frame rate mode : Constant
Frame rate : 23.976 (24000/1001) fps
Color space : YUV
Chroma subsampling : 4:2:0
Bit depth : 8 bits
Scan type : Progressive
Bits/(Pixel*Frame) : 0.316
Stream size : 3.49 GiB (76%)
Title : Andron.2015.720p.BluRay.x264.DTS-FGT
Writing library : x264 core 148 r2601 a0cd7d3
Encoding settings : cabac=1 / ref=4 / deblock=1:-2:-2 / analyse=0x3:0x113 / me=umh / subme=7 / psy=1 / psy_rd=1.00:0.15 / mixed_ref=1 / me_range=16 / chroma_me=1 / trellis=1 / 8x8dct=1 / cqm=0 / deadzone=21,11 / fast_pskip=1 / chroma_qp_offset=-3 / threads=40 / lookahead_threads=3 / sliced_threads=0 / nr=0 / decimate=1 / interlaced=0 / bluray_compat=0 / constrained_intra=0 / bframes=3 / b_pyramid=2 / b_adapt=2 / b_bias=0 / direct=3 / weightb=1 / open_gop=0 / weightp=2 / keyint=250 / keyint_min=25 / scenecut=40 / intra_refresh=0 / rc_lookahead=50 / rc=abr / mbtree=1 / bitrate=5500 / ratetol=1.0 / qcomp=0.60 / qpmin=0 / qpmax=69 / qpstep=4 / vbv_maxrate=31250 / vbv_bufsize=31250 / nal_hrd=none / filler=0 / ip_ratio=1.40 / aq=1:1.00
Language : English
Default : Yes
Forced : No

Audio
ID : 2
Format : DTS
Format/Info : Digital Theater Systems
Mode : 16
Format settings, Endianness : Big
Codec ID : A_DTS
Duration : 1h 36mn
Bit rate mode : Constant
Bit rate : 1 509 Kbps
Channel(s) : 6 channels
Channel positions : Front: L C R, Side: L R, LFE
Sampling rate : 48.0 KHz
Frame rate : 93.750 fps (512 spf)
Bit depth : 24 bits
Compression mode : Lossy
Stream size : 1.02 GiB (22%)
Title : Andron.2015.720p.BluRay.x264.DTS-FGT
Language : English
Default : Yes
Forced : No

Text
ID : 3
Format : UTF-8
Codec ID : S_TEXT/UTF8
Codec ID/Info : UTF-8 Plain Text
Language : English
Default : Yes
Forced : No

Menu
00:00:00.000 : en:00:00:00.000
00:07:47.926 : en:00:07:47.926
00:16:41.125 : en:00:16:41.125
00:24:54.827 : en:00:24:54.827
00:33:44.481 : en:00:33:44.481
00:42:02.687 : en:00:42:02.687
00:50:56.053 : en:00:50:56.053
00:59:44.581 : en:00:59:44.581
01:08:34.110 : en:01:08:34.110
01:18:36.921 : en:01:18:36.921
01:25:18.113 : en:01:25:18.113
01:31:45.542 : en:01:31:45.542

General
Unique ID : 209024329180855774084734511920603569166 (0x9D409F187E41FA05B51C99695A6D9C0E)
Complete name : J:\Andron.2015.1080p.BluRay.x264.DTS-FGT\Andron.2015.1080p.BluRay.x264.DTS-FGT.mkv
Format : Matroska
Format version : Version 4 / Version 2
File size : 8.47 GiB
Duration : 1h 36mn
Overall bit rate : 12.6 Mbps
Movie name : Andron.2015.1080p.BluRay.x264.DTS-FGT
Encoded date : UTC 2016-08-26 14:28:20
Writing application : mkvmerge v9.4.0 ('Knurl') 64bit
Writing library : libebml v1.3.4 + libmatroska v1.4.5
Cover : Yes
Attachments : small_cover.jpg / small_cover_land.jpg / cover.jpg / cover_land.jpg

Video
ID : 1
Format : AVC
Format/Info : Advanced Video Codec
Format profile : High@L4.1
Format settings, CABAC : Yes
Format settings, ReFrames : 4 frames
Codec ID : V_MPEG4/ISO/AVC
Duration : 1h 36mn
Bit rate : 10.8 Mbps
Nominal bit rate : 11.5 Mbps
Width : 1 920 pixels
Height : 800 pixels
Display aspect ratio : 2.40:1
Frame rate mode : Constant
Frame rate : 23.976 (24000/1001) fps
Color space : YUV
Chroma subsampling : 4:2:0
Bit depth : 8 bits
Scan type : Progressive
Bits/(Pixel*Frame) : 0.293
Stream size : 7.28 GiB (86%)
Title : Andron.2015.1080p.BluRay.x264.DTS-FGT
Writing library : x264 core 148 r2694 3b70645
Encoding settings : cabac=1 / ref=4 / deblock=1:-2:-2 / analyse=0x3:0x113 / me=umh / subme=7 / psy=1 / psy_rd=1.00:0.15 / mixed_ref=1 / me_range=16 / chroma_me=1 / trellis=1 / 8x8dct=1 / cqm=0 / deadzone=21,11 / fast_pskip=1 / chroma_qp_offset=-3 / threads=40 / lookahead_threads=3 / sliced_threads=0 / nr=0 / decimate=1 / interlaced=0 / bluray_compat=0 / constrained_intra=0 / bframes=3 / b_pyramid=2 / b_adapt=2 / b_bias=0 / direct=3 / weightb=1 / open_gop=0 / weightp=2 / keyint=250 / keyint_min=25 / scenecut=40 / intra_refresh=0 / rc_lookahead=50 / rc=abr / mbtree=1 / bitrate=11500 / ratetol=1.0 / qcomp=0.60 / qpmin=0 / qpmax=69 / qpstep=4 / vbv_maxrate=31250 / vbv_bufsize=31250 / nal_hrd=none / filler=0 / ip_ratio=1.40 / aq=1:1.00
Language : English
Default : Yes
Forced : No

Audio
ID : 2
Format : DTS
Format/Info : Digital Theater Systems
Mode : 16
Format settings, Endianness : Big
Codec ID : A_DTS
Duration : 1h 36mn
Bit rate mode : Constant
Bit rate : 1 509 Kbps
Channel(s) : 6 channels
Channel positions : Front: L C R, Side: L R, LFE
Sampling rate : 48.0 KHz
Frame rate : 93.750 fps (512 spf)
Bit depth : 24 bits
Compression mode : Lossy
Stream size : 1.02 GiB (12%)
Title : Andron.2015.1080p.BluRay.x264.DTS-FGT
Language : English
Default : Yes
Forced : No

Text
ID : 3
Format : UTF-8
Codec ID : S_TEXT/UTF8
Codec ID/Info : UTF-8 Plain Text
Language : English
Default : Yes
Forced : No

Menu
00:00:00.000 : en:00:00:00.000
00:07:47.926 : en:00:07:47.926
00:16:41.125 : en:00:16:41.125
00:24:54.827 : en:00:24:54.827
00:33:44.481 : en:00:33:44.481
00:42:02.687 : en:00:42:02.687
00:50:56.053 : en:00:50:56.053
00:59:44.581 : en:00:59:44.581
01:08:34.110 : en:01:08:34.110
01:18:36.921 : en:01:18:36.921
01:25:18.113 : en:01:25:18.113
01:31:45.542 : en:01:31:45.542


BRRip Screenshots

Andròn: The Black Labyrinth (2015)

Andròn: The Black Labyrinth (2015)

Andròn: The Black Labyrinth (2015)


BDRip 720p Screenshots

Andròn: The Black Labyrinth (2015)

Andròn: The Black Labyrinth (2015)

Andròn: The Black Labyrinth (2015)


BDRip 1080p Screenshots

Andròn: The Black Labyrinth (2015)

Andròn: The Black Labyrinth (2015)

Andròn: The Black Labyrinth (2015)


Come Visit My Blog (•‿•)