Tags
Language
Tags

Angel Of Mine (2019)

Posted By: JohnSmith
720p (HD) / BDRip IMDb
Angel Of Mine (2019)

Angel Of Mine (2019)
BDRip 720p | MKV / AVC@4110 kb/s | 1280x536 | 1h 38mn | Français (VFQ): AC3, 640 kb/s (6 ch) | 3.27 GB
Genre: Drama | Mystery | Thriller

Lizzie a perdu sa petite fille il y a des années. Quand elle rencontre une fillette, elle est convaincue que cette dernière est en réalité la sienne. Elle devient obsédée par l'enfant et perd petit à petit contact avec la réalité…


General
Complete name : C:\Angel.of.Mine.2019.FRENCH.720p.BluRay.mkv
Format : Matroska
Format version : Version 2
File size : 3.27 GiB
Duration : 1 h 38 min
Overall bit rate : 4 751 kb/s
Writing application : mkvmerge v6.6.0 ('The Edge Of The In Between') built on Dec 1 2013 17:55:00
Writing library : libebml v1.3.0 + libmatroska v1.4.1

Video
ID : 1
Format : AVC
Format/Info : Advanced Video Codec
Format profile : High@L4.1
Format settings : CABAC / 5 Ref Frames
Format settings, CABAC : Yes
Format settings, Reference : 5 frames
Codec ID : V_MPEG4/ISO/AVC
Duration : 1 h 38 min
Bit rate : 4 112 kb/s
Width : 1 280 pixels
Height : 536 pixels
Display aspect ratio : 2.40:1
Frame rate mode : Constant
Frame rate : 23.976 (24000/1001) FPS
Color space : YUV
Chroma subsampling : 4:2:0
Bit depth : 8 bits
Scan type : Progressive
Bits/(Pixel*Frame) : 0.250
Stream size : 2.77 GiB (85%)
Writing library : x264 core 157 r2969 d4099dd
Encoding settings : cabac=1 / ref=5 / deblock=1:0:0 / analyse=0x3:0x113 / me=umh / subme=8 / psy=1 / psy_rd=1.00:0.00 / mixed_ref=1 / me_range=16 / chroma_me=1 / trellis=1 / 8x8dct=1 / cqm=0 / deadzone=21,11 / fast_pskip=1 / chroma_qp_offset=-2 / threads=17 / lookahead_threads=2 / sliced_threads=0 / nr=0 / decimate=1 / interlaced=0 / bluray_compat=0 / constrained_intra=0 / bframes=3 / b_pyramid=2 / b_adapt=2 / b_bias=0 / direct=3 / weightb=1 / open_gop=0 / weightp=2 / keyint=240 / keyint_min=24 / scenecut=40 / intra_refresh=0 / rc_lookahead=50 / rc=2pass / mbtree=1 / bitrate=4112 / ratetol=1.0 / qcomp=0.60 / qpmin=0 / qpmax=69 / qpstep=4 / cplxblur=20.0 / qblur=0.5 / ip_ratio=1.40 / aq=1:1.00
Language : English
Default : Yes
Forced : No

Audio
ID : 2
Format : AC-3
Format/Info : Audio Coding 3
Commercial name : Dolby Digital
Codec ID : A_AC3
Duration : 1 h 38 min
Bit rate mode : Constant
Bit rate : 640 kb/s
Channel(s) : 6 channels
Channel layout : L R C LFE Ls Rs
Sampling rate : 48.0 kHz
Frame rate : 31.250 FPS (1536 SPF)
Bit depth : 16 bits
Compression mode : Lossy
Stream size : 452 MiB (13%)
Title : French AC3 640kbps
Language : French
Service kind : Complete Main
Default : Yes
Forced : No

Text
ID : 3
Format : UTF-8
Codec ID : S_TEXT/UTF8
Codec ID/Info : UTF-8 Plain Text
Title : Forced
Language : French
Default : Yes
Forced : Yes

Menu
00:00:00.000 : en:00:00:00.000
00:12:43.554 : en:00:12:43.554
00:26:41.183 : en:00:26:41.183
00:41:32.615 : en:00:41:32.615
00:53:50.769 : en:00:53:50.769
01:06:20.768 : en:01:06:20.768
01:19:07.743 : en:01:19:07.743
01:34:11.563 : en:01:34:11.563




Screenshots

Angel Of Mine (2019)

Angel Of Mine (2019)

Angel Of Mine (2019)