Subcategories

Jove Films - Animated Soviet Propaganda: From the October Revolution to Perestroika (1997) [Repost]

Posted By: Tutorial
Jove Films - Animated Soviet Propaganda: From the October Revolution to Perestroika (1997) [Repost]

Jove Films - Animated Soviet Propaganda: From the October Revolution to Perestroika (1997)
DVDRip | 704 x 536 | .MKV/AVC @ 2125 Kbps | 4x~103mn | 7.79 GB
Audio: English AC-3 224 Kbps, 2 channels | Subs: None
Genre: Documentary, History, Arts

There hardly is a time in world history more politically polarized than the 20th century, which divided the globe in two camps — capitalism and communism — divided at the height of the divergence by the infamous Iron Curtain. The Cold War was very much a war of ideologies and each side relied heavily on the ideological unity of its people, often employing the power of the visual arts — graphic design, animation, illustration — to drive its message home.
From 1924 to perestroika the USSR produced 41 animated propaganda films. Their target was the new nation and their goal was to win over the hearts and minds of the Soviet people. Anti-American, Anti-British, Anti-German, Anti-Capitalist, Anti-Fascist, some of these films are as artistically beautiful as the great political posters made after the 1917 revolution which inspired Soviet animation. Unearthed from Moscow's legendary Soyuzmultfilm Studios, the 41 films in ANIMATED SOVIET PROPAGANDA span sixty years of Soviet history. The set is divided thematically into four parts, all dealing with different subjects of the Soviet propaganda machine. Containing 6 hours of rare material in all, this set offers a fascinating look at the history of Soviet propaganda. It is an invaluable resource that displays how one of the greatest and most reclusive powers wanted their people to envision the rest of the world, as well as being an idiosyncratic tour through Russia's rich and varied history of animated art. The films feature some astounding animation techniques from stop-motion to paper cutout animation to impressively intricate puppetry. Includes interviews with the directors and commentary by the leading Soviet film scholars. Films by Jove in association with SoyuzmultFilm Studios.

Part 1: American Imperialists
AMERICAN IMPERIALISTS contains seven films, almost all of which are drawn from the Cold War era. The recurring image is of the money hungry industrialist self-destructing because of his greed.

Part 2: Fascist Barbarians

FASCIST BARBARIANS is a 17 film reaction to the Nazi invasion of 1941. While Americans were mocked relentlessly, at least they remained human. After breaking the non-aggression pact and declaring war, the Nazis became animals in the propaganda films, turning into snarling warthogs and depraved vultures.

Part 3: Capitalist Sharks
CAPITALIST SHARKS contains six films that take on the bourgeoisie the world over - and sometimes beyond. In INTERPLANTERY REVOLUTION (1924), capitalists escaping to Mars discover the revolution has spread throughout the galaxy. This part is a 6-film assault on the bourgeoisie, weaving sci-fi narratives to envision dystopian scenarios for capitalists' world domination.

Part 4: Shining Future
ONWARD TO THE SHINING FUTURE: COMMUNISM contains 11 works, most of which mythologize the state and and promise a utopian future of universal well-being. Dziga Vertov's SOVIET TOYS (1924), however, offers criticism of the state. Generally agreed to be the first Russian animated film, it satirizes the communist members who cashed in on Lenin's New Economic Policy (NEP), which introduced a limited form of capitalist enterprise.

Related Documentaries:
BBC - Gulag (2000)
PBS POV - My Perestroika (2010)
Studio Nadezhda - The Dialogues with Solzhenitsyn (1998)
DC Weapons of War - Propaganda: War of the Mind (2000)
BSkyB - Cinema Komunisto (2010)
Atoms & Void - Sobytie: The Event (2015)
SBS - Stalin's daughter (2015)
Stalin - In Color (2013)
A&E Biography - Joseph Stalin: Red Terror (1996)
Arte - Faith of the Century: A History of Communism (1999)
TV Rossiya - Liberators: The Soldiers of the Red Army (2010)
Discovery Channel - Last of the Czars (1996)
The Romanovs: Glory and Fall of the Czars (2013)
History Channel - Russia: Land of the Tsars (2012)
BBC - Empire of the Tsars: Romanov Russia (2016)
ITV - Karl Marx and Marxism (1983)

General
Unique ID : 194514659115232253578050870110417118950 (0x9256292118292F06AEFD11326100E6E6)
Complete name : Animated.Soviet.Propaganda.From.the.October.Revolution.to.Perestroika.1of4.mkv
Format : Matroska
Format version : Version 4 / Version 2
File size : 1.70 GiB
Duration : 1 h 43 min
Overall bit rate : 2 351 kb/s
Movie name : Animated.Soviet.Propaganda.1of4.American.Imperialists.
Encoded date : UTC 2016-03-20 14:25:55
Writing application : mkvmerge v8.9.0 ('Father Daughter') 64bit
Writing library : libebml v1.3.3 + libmatroska v1.4.4

Video
ID : 1
Format : AVC
Format/Info : Advanced Video Codec
Format profile : High@L4
Format settings, CABAC : Yes
Format settings, ReFrames : 6 frames
Codec ID : V_MPEG4/ISO/AVC
Duration : 1 h 43 min
Bit rate : 2 125 kb/s
Width : 704 pixels
Height : 536 pixels
Display aspect ratio : 4:3
Frame rate mode : Constant
Frame rate : 29.970 (30000/1001) FPS
Color space : YUV
Chroma subsampling : 4:2:0
Bit depth : 8 bits
Scan type : Progressive
Bits/(Pixel*Frame) : 0.188
Stream size : 1.54 GiB (90%)
Writing library : x264 core 66 r1092 60f4cd8
Encoding settings : cabac=1 / ref=6 / deblock=1:-1:-1 / analyse=0x3:0x113 / me=umh / subme=7 / psy_rd=1.0:1.0 / mixed_ref=1 / me_range=16 / chroma_me=1 / trellis=2 / 8x8dct=1 / cqm=0 / deadzone=21,11 / chroma_qp_offset=-4 / threads=12 / nr=0 / decimate=1 / mbaff=0 / bframes=6 / b_pyramid=1 / b_adapt=2 / b_bias=0 / direct=3 / wpredb=1 / keyint=250 / keyint_min=25 / scenecut=40(pre) / rc=2pass / bitrate=2125 / ratetol=1.0 / qcomp=0.60 / qpmin=10 / qpmax=51 / qpstep=4 / cplxblur=20.0 / qblur=0.5 / vbv_maxrate=25000 / vbv_bufsize=14000 / ip_ratio=1.40 / pb_ratio=1.30 / aq=1:1.00
Default : Yes
Forced : No

Audio
ID : 2
Format : AC-3
Format/Info : Audio Coding 3
Format settings, Endianness : Big
Codec ID : A_AC3
Duration : 1 h 43 min
Bit rate mode : Constant
Bit rate : 224 kb/s
Channel(s) : 2 channels
Channel positions : Front: L R
Sampling rate : 48.0 kHz
Frame rate : 31.250 FPS (1536 spf)
Bit depth : 16 bits
Compression mode : Lossy
Delay relative to video : 14 ms
Stream size : 166 MiB (10%)
Service kind : Complete Main
Default : Yes
Forced : No
Screenshots

Jove Films - Animated Soviet Propaganda: From the October Revolution to Perestroika (1997) [Repost]

Jove Films - Animated Soviet Propaganda: From the October Revolution to Perestroika (1997) [Repost]

Jove Films - Animated Soviet Propaganda: From the October Revolution to Perestroika (1997) [Repost]

Jove Films - Animated Soviet Propaganda: From the October Revolution to Perestroika (1997) [Repost]

Jove Films - Animated Soviet Propaganda: From the October Revolution to Perestroika (1997) [Repost]

Welcome to my blog - daily update!

Jove Films - Animated Soviet Propaganda: From the October Revolution to Perestroika (1997) [Repost]