Tags
Language
Tags

Mongrel - Anthropocene - The Human Epoch (2018)

Posted By: notbanned
720p (HD) / HDTV
Mongrel - Anthropocene - The Human Epoch (2018)

Mongrel - Anthropocene - The Human Epoch (2018)
HDTV | 1280x718 | .MKV/AVC @ 4033 Kbps | 1 h 26 min | 2.67 GiB
Audio: English AC3 384 kbps, 6 channels | Subs: None
Genre: Documentary

Filmmakers travel to six continents and 20 countries to document the impact humans have made on the planet.

General
Unique ID : 234444883061500981129660196187750637602 (0xB060712AD23F52E2E19D2C494575A022)
Complete name : Anthropocene.The.Human.Epoch.720p.mkv
Format : Matroska
Format version : Version 4 / Version 2
File size : 2.67 GiB
Duration : 1 h 26 min
Overall bit rate : 4 419 kb/s

Video
ID : 2
Format : AVC
Format/Info : Advanced Video Codec
Format profile : High@L3.1
Format settings, CABAC : No
Format settings, ReFrames : 2 frames
Codec ID : V_MPEG4/ISO/AVC
Duration : 1 h 26 min
Bit rate : 4 033 kb/s
Width : 1 280 pixels
Height : 718 pixels
Display aspect ratio : 16:9
Frame rate mode : Constant
Frame rate : 24.000 FPS
Color space : YUV
Chroma subsampling : 4:2:0
Bit depth : 8 bits
Scan type : Progressive
Bits/(Pixel*Frame) : 0.183
Stream size : 2.44 GiB (91%)
Language : English
Default : Yes
Forced : No
Color range : Limited
Color primaries : BT.709
Transfer characteristics : BT.709
Matrix coefficients : BT.709

Audio
ID : 1
Format : AC-3
Format/Info : Audio Coding 3
Format settings, Endianness : Big
Codec ID : A_AC3
Duration : 1 h 26 min
Bit rate mode : Constant
Bit rate : 384 kb/s
Channel(s) : 6 channels
Channel positions : Front: L C R, Side: L R, LFE
Sampling rate : 48.0 kHz
Frame rate : 31.250 FPS (1536 spf)
Bit depth : 16 bits
Compression mode : Lossy
Delay relative to video : -42 ms
Stream size : 238 MiB (9%)
Language : English
Service kind : Complete Main
Default : Yes
Forced : No

Menu
00:00:00.000 : en:Chapter 1
00:07:54.250 : en:Chapter 2
00:16:57.291 : en:Chapter 3
00:25:22.623 : en:Chapter 4
00:34:47.205 : en:Chapter 5
00:45:02.830 : en:Chapter 6
00:53:54.496 : en:Chapter 7
01:02:23.287 : en:Chapter 8
01:10:34.452 : en:Chapter 9
01:16:44.659 : en:Chapter 10
01:22:06.575 : en:Chapter 11


Screenshots:

Mongrel - Anthropocene - The Human Epoch (2018)

Mongrel - Anthropocene - The Human Epoch (2018)

Mongrel - Anthropocene - The Human Epoch (2018)

Mongrel - Anthropocene - The Human Epoch (2018)