BBC - Antique Roadshow Series 40: Nymans (2017)

Posted By: Tutorial
BBC - Antique Roadshow Series 40: Nymans (2017)

BBC - Antique Roadshow Series 40: Nymans (2017)
HDTV | 1280 x 720 | .MP4/AVC @ 3200 Kbps | 2x~57mn | 2.74 GB
Audio: English AAC 160 Kbps, 2 channels | Subs: English
Genre: Documentary, Arts, History

Fiona Bruce and the experts visit the National Trust's beautiful Nymans garden near Crawley, where they are kept busy as they comb through over 4,000 visitors' family heirlooms in search of treasure.
Part 1: Nymans: 1
Objects exciting the experts include an axe which was reputedly used by Mallory for his 1922 Everest expedition, a sofa that starred in a classic movie and a diver's watch. Closing honours go to a 'bag of trinkets' found on top of a wardrobe which leaves the owner open-mouthed at her unexpected discovery.

Part 2: Nymans: 2
Pieces brought to the cameras include a fine Picasso-designed ceramic once used as an ash tray and a jewelled locket given as a gift by Queen Victoria, and an addicted collector brings almost 1,000 keys for appraisal. But one of the best reactions to a recent valuation is given when a man with a box of silver gambling tokens given in lieu of debt demands a bodyguard at hearing his surprise news.

also You can find my last: Antique Roadshow-posts

General
Complete name : Antiques.Roadshow.Series.40.1of2.Nymans.1.mp4
Format : MPEG-4
Format profile : Base Media
Codec ID : isom (isom)
File size : 1.37 GiB
Duration : 57 min 54 s
Overall bit rate mode : Variable
Overall bit rate : 3 392 kb/s
Encoded date : UTC 2017-10-19 13:00:59
Tagged date : UTC 2017-10-19 13:00:59
Writing application : My MP4Box GUI 0.6.0.6

Video
ID : 1
Format : AVC
Format/Info : Advanced Video Codec
Format profile : High@L4.1
Format settings, CABAC : Yes
Format settings, ReFrames : 4 frames
Codec ID : avc1
Codec ID/Info : Advanced Video Coding
Duration : 57 min 54 s
Bit rate : 3 200 kb/s
Maximum bit rate : 10.4 Mb/s
Width : 1 280 pixels
Height : 720 pixels
Display aspect ratio : 16:9
Frame rate mode : Constant
Frame rate : 25.000 FPS
Color space : YUV
Chroma subsampling : 4:2:0
Bit depth : 8 bits
Scan type : Progressive
Bits/(Pixel*Frame) : 0.139
Stream size : 1.31 GiB (95%)
Title : Antiques.Roadshow.Series.40.1of2.Nymans.1.720p.HDTV.x264.AAC.
Writing library : x264 core 130 r2273 b3065e6
Encoding settings : cabac=1 / ref=1 / deblock=1:0:0 / analyse=0x3:0x3 / me=dia / subme=1 / psy=1 / psy_rd=1.00:0.00 / mixed_ref=0 / me_range=16 / chroma_me=1 / trellis=0 / 8x8dct=1 / cqm=0 / deadzone=21,11 / fast_pskip=1 / chroma_qp_offset=0 / threads=6 / lookahead_threads=1 / sliced_threads=0 / nr=0 / decimate=1 / interlaced=0 / bluray_compat=0 / constrained_intra=0 / bframes=3 / b_pyramid=2 / b_adapt=1 / b_bias=0 / direct=1 / weightb=1 / open_gop=0 / weightp=1 / keyint=250 / keyint_min=25 / scenecut=40 / intra_refresh=0 / rc_lookahead=0 / rc=abr / mbtree=0 / bitrate=3200 / ratetol=1.0 / qcomp=0.60 / qpmin=0 / qpmax=69 / qpstep=4 / vbv_maxrate=62500 / vbv_bufsize=78125 / nal_hrd=none / ip_ratio=1.40 / pb_ratio=1.30 / aq=1:1.00
Encoded date : UTC 2017-10-18 19:48:12
Tagged date : UTC 2017-10-19 13:01:27
Color range : Limited
Color primaries : BT.709
Transfer characteristics : BT.709
Matrix coefficients : BT.709

Audio
ID : 2
Format : AAC
Format/Info : Advanced Audio Codec
Format profile : LC
Codec ID : 40
Duration : 57 min 54 s
Bit rate mode : Variable
Bit rate : 160 kb/s
Maximum bit rate : 200 kb/s
Channel(s) : 2 channels
Channel positions : Front: L R
Sampling rate : 48.0 kHz
Frame rate : 46.875 FPS (1024 spf)
Compression mode : Lossy
Stream size : 66.3 MiB (5%)
Title : Antiques.Roadshow.Series.40.1of2.Nymans.1.720p.HDTV.x264.AAC
Encoded date : UTC 2017-10-19 13:01:23
Tagged date : UTC 2017-10-19 13:01:27

Text
ID : 3
Format : Timed Text
Codec ID : tx3g
Duration : 57 min 22 s
Bit rate mode : Variable
Bit rate : 248 b/s
Stream size : 104 KiB (0%)
Title : Antiques.Roadshow.Series.40.1of2.Nymans.1.720p.HDTV.x264.AAC
Forced : No
Encoded date : UTC 2017-10-19 13:01:27
Tagged date : UTC 2017-10-19 13:01:27
Screenshots

BBC - Antique Roadshow Series 40: Nymans (2017)

BBC - Antique Roadshow Series 40: Nymans (2017)

Welcome to my blog - daily update!

BBC - Antique Roadshow Series 40: Nymans (2017)