Argerich / Bloody Daughter (2012)

Posted By: Rare-1
Argerich / Bloody Daughter (2012)

Argerich / Bloody Daughter (2012)
DVDRip | MKV | 718 x 576 | AVC @ 1540 Kbps | 95 min | 1.18 Gb
Audio: French, English, Spanish, Japanese AC3 2.0 @ 192 Kbps | Subs: English, French, German (embedded)
Genre: Documentary | France

The mother through the daughter's eyes - a family portrait blending intimate conversations, agreements and disagreements, and shred ties of sounds and blood. This intimate portrait of two musical giants by Martha Argerich's daughter Stéphanie has been filmed over two decades and around the world: Warsaw, where Martha Argerich won the Chopin competition first prize; Japan, which hosts a unique Argerich festival; London, where Stephen Kovacevich, Stéphanie's father, lives, works and enjoys intensively Indian food; Belgium, where Martha lives in a house filled with pianos and cats; Argentina, which she left at the age of twelve to study in Vienna, but still conceals valuable family treasures; Switzerland, where Stéphanie and her sister Lyda are currently living. Made up of documentary sequences focusing on the two characters of Martha and Stephen in their everyday lives, in rehearsal and in performance, the film will be largely given over to intimate, delicious anecdotes, and a few scenes in which the family is reunited. A film by Stéphanie Argerich.

IMDB 7.2/10 from 64 users

Director: Stéphanie Argerich
Writer: N/A
Actors: Martha Argerich, Stephen Kovacevitch, Lyda Chen, Anne Dutoit
Rated: N/A
Runtime: 95 min

Pianists Martha Argerich and Stephen Kovacevich, two prominent figures in classical music, are accompanied and observed by their daughter Stéphanie. An intimate family portrait and the daughter’s examination of a «goddess», her mother. How can motherhood and career, but also a partner relationship and self-fulfilment be unified in this day and age? A journey into the Argerich matriarchy.

Argerich / Bloody Daughter (2012)

Argerich / Bloody Daughter (2012)

Argerich / Bloody Daughter (2012)

Argerich / Bloody Daughter (2012)


Argerich / Bloody Daughter (2012)


More Screenshots:

Argerich / Bloody Daughter (2012)



General
Unique ID : 231239536768619697483731866017668441217 (0xADF71D64C5593505A457D27C349AA481)
Complete name : F:\Stephanie Argerich - (2012) Argerich.mkv
Format : Matroska
Format version : Version 4 / Version 2
File size : 1.18 GiB
Duration : 1h 35mn
Overall bit rate : 1 768 Kbps
Encoded date : UTC 2015-01-12 07:45:23
Writing application : mkvmerge v7.4.0 ('Circles') 64bit built on Dec 12 2014 12:19:56
Writing library : libebml v1.3.0 + libmatroska v1.4.1
DURATION : 01:33:18.200000000
NUMBER_OF_FRAMES : 1003
NUMBER_OF_BYTES : 966657
_STATISTICS_WRITING_APP : mkvmerge v7.4.0 ('Circles') 64bit built on Dec 12 2014 12:19:56
_STATISTICS_WRITING_DATE_UTC : 2015-01-12 07:45:23
_STATISTICS_TAGS : BPS DURATION NUMBER_OF_FRAMES NUMBER_OF_BYTES

Video
ID : 1
Format : AVC
Format/Info : Advanced Video Codec
Format profile : High@L3.1
Format settings, CABAC : Yes
Format settings, ReFrames : 11 frames
Codec ID : V_MPEG4/ISO/AVC
Duration : 1h 35mn
Bit rate : 1 540 Kbps
Width : 718 pixels
Height : 576 pixels
Display aspect ratio : 16:9
Frame rate mode : Constant
Frame rate : 25.000 fps
Color space : YUV
Chroma subsampling : 4:2:0
Bit depth : 8 bits
Scan type : Progressive
Bits/(Pixel*Frame) : 0.149
Stream size : 1.03 GiB (87%)
Writing library : x264 core 144 r2525 40bb568
Encoding settings : cabac=1 / ref=11 / deblock=1:-3:-3 / analyse=0x3:0x133 / me=umh / subme=11 / psy=1 / psy_rd=1.00:0.15 / mixed_ref=1 / me_range=32 / chroma_me=1 / trellis=2 / 8x8dct=1 / cqm=0 / deadzone=21,11 / fast_pskip=0 / chroma_qp_offset=-3 / threads=12 / lookahead_threads=3 / sliced_threads=0 / nr=0 / decimate=0 / interlaced=0 / bluray_compat=0 / constrained_intra=0 / bframes=10 / b_pyramid=2 / b_adapt=2 / b_bias=0 / direct=3 / weightb=1 / open_gop=0 / weightp=2 / keyint=250 / keyint_min=25 / scenecut=40 / intra_refresh=0 / rc_lookahead=100 / rc=crf / mbtree=0 / crf=21.0 / qcomp=0.60 / qpmin=0 / qpmax=69 / qpstep=4 / vbv_maxrate=17500 / vbv_bufsize=17500 / crf_max=0.0 / nal_hrd=none / filler=0 / ip_ratio=1.40 / pb_ratio=1.30 / aq=1:1.00
Language : English
Default : Yes
Forced : No
DURATION : 01:35:45.120000000
NUMBER_OF_FRAMES : 143628
NUMBER_OF_BYTES : 1127860417
_STATISTICS_WRITING_APP : mkvmerge v7.4.0 ('Circles') 64bit built on Dec 12 2014 12:19:56
_STATISTICS_WRITING_DATE_UTC : 2015-01-12 07:45:23
_STATISTICS_TAGS : BPS DURATION NUMBER_OF_FRAMES NUMBER_OF_BYTES

Audio
ID : 2
Format : AC-3
Format/Info : Audio Coding 3
Mode extension : CM (complete main)
Format settings, Endianness : Big
Codec ID : A_AC3
Duration : 1h 35mn
Bit rate mode : Constant
Bit rate : 192 Kbps
Channel(s) : 2 channels
Channel positions : Front: L R
Sampling rate : 48.0 KHz
Bit depth : 16 bits
Compression mode : Lossy
Stream size : 131 MiB (11%)
Default : Yes
Forced : No

Text #1
ID : 3
Format : VobSub
Muxing mode : zlib
Codec ID : S_VOBSUB
Codec ID/Info : The same subtitle format used on DVDs
Language : German
Default : Yes
Forced : No

Text #2
ID : 4
Format : VobSub
Muxing mode : zlib
Codec ID : S_VOBSUB
Codec ID/Info : The same subtitle format used on DVDs
Language : French
Default : No
Forced : No

Text #3
ID : 5
Format : VobSub
Muxing mode : zlib
Codec ID : S_VOBSUB
Codec ID/Info : The same subtitle format used on DVDs
Language : English
Default : No
Forced : No


Many Thanks to Original uploader.


For More Rare Movies Check out my blog!


Download Links :

No Mirrors Please