Arte - The Gaudi Code (2015)

Posted By: Tutorial
Arte - The Gaudi Code (2015)

Arte - The Gaudi Code (2015)
HDTV | 1920 x 1080 | .MP4/AVC @ 5736 Kbps | 54 min 9 s | 2.23 GB
Audio: English AAC 160 Kbps, 2 channels | Subs: English
Genre: Documentary

La Sagrada Familia – although still under construction in Barcelona – is a cathedral without any flaws. Almost 100 years after his death, experts are convinced that Gaudi was a mathematical genius and that each embellishing ornament of the Sagrada Familia actually serves an architectural purpose.

General
Complete name : The.Gaudi.Code.mp4
Format : MPEG-4
Format profile : Base Media
Codec ID : isom (isom)
File size : 2.23 GiB
Duration : 54 min 9 s
Overall bit rate mode : Variable
Overall bit rate : 5 901 kb/s
Encoded date : UTC 2017-05-14 18:52:55
Tagged date : UTC 2017-05-14 18:52:55
Writing application : My MP4Box GUI 0.6.0.6

Video
ID : 1
Format : AVC
Format/Info : Advanced Video Codec
Format profile : High@L4.1
Format settings, CABAC : Yes
Format settings, ReFrames : 4 frames
Codec ID : avc1
Codec ID/Info : Advanced Video Coding
Duration : 54 min 9 s
Bit rate : 5 736 kb/s
Maximum bit rate : 24.0 Mb/s
Width : 1 920 pixels
Height : 1 080 pixels
Display aspect ratio : 16:9
Frame rate mode : Variable
Frame rate : 23.976 (23976/1000) FPS
Minimum frame rate : 11.344 FPS
Maximum frame rate : 23.981 FPS
Color space : YUV
Chroma subsampling : 4:2:0
Bit depth : 8 bits
Scan type : Progressive
Bits/(Pixel*Frame) : 0.115
Stream size : 2.17 GiB (97%)
Title : The.Gaudi.Code.1080p.HDTV.x264.AAC
Writing library : x264 core 130 r2273 b3065e6
Encoding settings : cabac=1 / ref=1 / deblock=1:0:0 / analyse=0x3:0x3 / me=dia / subme=1 / psy=1 / psy_rd=1.00:0.00 / mixed_ref=0 / me_range=16 / chroma_me=1 / trellis=0 / 8x8dct=1 / cqm=0 / deadzone=21,11 / fast_pskip=1 / chroma_qp_offset=0 / threads=6 / lookahead_threads=1 / sliced_threads=0 / nr=0 / decimate=1 / interlaced=0 / bluray_compat=0 / constrained_intra=0 / bframes=3 / b_pyramid=2 / b_adapt=1 / b_bias=0 / direct=1 / weightb=1 / open_gop=0 / weightp=1 / keyint=240 / keyint_min=24 / scenecut=40 / intra_refresh=0 / rc_lookahead=0 / rc=crf / mbtree=0 / crf=22.0 / qcomp=0.60 / qpmin=0 / qpmax=69 / qpstep=4 / vbv_maxrate=62500 / vbv_bufsize=78125 / crf_max=0.0 / nal_hrd=none / ip_ratio=1.40 / pb_ratio=1.30 / aq=1:1.00
Encoded date : UTC 2017-05-14 07:47:56
Tagged date : UTC 2017-05-14 18:53:44
Color range : Limited
Color primaries : BT.709
Transfer characteristics : BT.709
Matrix coefficients : BT.709

Audio
ID : 2
Format : AAC
Format/Info : Advanced Audio Codec
Format profile : LC
Codec ID : 40
Duration : 54 min 9 s
Bit rate mode : Variable
Bit rate : 160 kb/s
Maximum bit rate : 297 kb/s
Channel(s) : 2 channels
Channel positions : Front: L R
Sampling rate : 44.1 kHz
Frame rate : 43.066 FPS (1024 spf)
Compression mode : Lossy
Stream size : 62.0 MiB (3%)
Title : The.Gaudi.Code.1080p.HDTV.x264.AAC
Encoded date : UTC 2017-05-14 18:53:40
Tagged date : UTC 2017-05-14 18:53:44

Text
ID : 3
Format : Timed Text
Codec ID : tx3g
Duration : 53 min 31 s
Bit rate mode : Variable
Bit rate : 91 b/s
Stream size : 35.9 KiB (0%)
Title : The.Gaudi.Code.1080p.HDTV.x264.AAC
Forced : No
Encoded date : UTC 2017-05-14 18:53:44
Tagged date : UTC 2017-05-14 18:53:44
Screenshots

Arte - The Gaudi Code (2015)

Arte - The Gaudi Code (2015)

Arte - The Gaudi Code (2015)

Welcome to my blog - daily update!

Arte - The Gaudi Code (2015)