Tags
Language
Tags

At Midnight I'll Take Your Soul / À Meia-Noite Levarei Sua Alma (1964)

Posted By: RSU75
SD / DVDRip IMDb
At Midnight I'll Take Your Soul / À Meia-Noite Levarei Sua Alma (1964)

At Midnight I'll Take Your Soul / À Meia-Noite Levarei Sua Alma (1964)
DVDRip | MKV | AVC 720x480, ~ 1.7 Mbps | 1hr 26mn | 1.68 GB
Portuguese: AC3, 2 ch, 448 kbps \ AC3, 6 ch, 320 kbps \ AC3, 2 ch, 320 kbps
Subtitles: Portuguese, English, Spanish, French:
Genre: Horror



Director: José Mojica Marins
Writers: José Mojica Marins
Stars: José Mojica Marins, Magda Mei, Nivaldo Lima

In a small town, the creepy and violent gravedigger Zé do Caixão is feared by the locals. Zé do Caixão lives with Lenita, who can not deliver a son to him. Obsessed to have a son, Zé do Caixão harasses Terezinha de Oliveira, who is the fiancée of his friend Antônio de Andrade, and kills Lenita with a spider simulating an accident. Then he drowns Antônio and rapes Terezinha expecting to have a baby with her. Terezinha commits suicide but does not accuse Zé do Caixão in his letter. When Dr. Rodolfo decides to request another autopsy of Antônio, Zé do Caixão burns him to death. The inspector Barretos can not prove that Zé do Caixão is the killer, but on the Day of the Dead, the local gypsy warns him that the dead will take his soul to hell.

DVD Distributor: Cinemagia

Extras:
- None




General
Unique ID : 249276572660475424992735928129921775482 (0xBB88EBEC263B5FA6878AA14C63B4777A)
Complete name : F:\AtMidnightIllTakeYourSoul.1964.Dr\AtMidnightIllTakeYourSoul.1964.Dr.mkv
Format : Matroska
Format version : Version 4
File size : 1.68 GiB
Duration : 1 h 26 min
Overall bit rate : 2 774 kb/s
Movie name : Release RSU75
Encoded date : UTC 2021-01-28 03:29:55
Writing application : mkvmerge v8.3.0 ('Over the Horizon') 64bit
Writing library : libebml v1.3.1 + libmatroska v1.4.2

Video
ID : 1
Format : AVC
Format/Info : Advanced Video Codec
Format profile : High@L4.1
Format settings : CABAC / 4 Ref Frames
Format settings, CABAC : Yes
Format settings, Reference fra : 4 frames
Codec ID : V_MPEG4/ISO/AVC
Duration : 1 h 26 min
Bit rate : 1 700 kb/s
Width : 720 pixels
Height : 480 pixels
Display aspect ratio : 4:3
Frame rate mode : Constant
Frame rate : 23.976 (23976/1000) FPS
Color space : YUV
Chroma subsampling : 4:2:0
Bit depth : 8 bits
Scan type : Progressive
Bits/(Pixel*Frame) : 0.205
Stream size : 1.01 GiB (61%)
Writing library : x264 core 148 r2643 5c65704
Encoding settings : cabac=1 / ref=4 / deblock=1:0:0 / analyse=0x3:0x113 / me=umh / subme=8 / psy=1 / psy_rd=1.00:0.00 / mixed_ref=1 / me_range=24 / chroma_me=1 / trellis=1 / 8x8dct=1 / cqm=0 / deadzone=21,11 / fast_pskip=1 / chroma_qp_offset=-2 / threads=3 / lookahead_threads=1 / sliced_threads=0 / nr=0 / decimate=1 / interlaced=0 / bluray_compat=0 / constrained_intra=0 / bframes=3 / b_pyramid=0 / b_adapt=2 / b_bias=0 / direct=3 / weightb=1 / open_gop=0 / weightp=2 / keyint=250 / keyint_min=25 / scenecut=40 / intra_refresh=0 / rc_lookahead=40 / rc=abr / mbtree=1 / bitrate=1700 / ratetol=1.0 / qcomp=0.60 / qpmin=10 / qpmax=51 / qpstep=4 / ip_ratio=1.41 / aq=1:1.00
Language : English
Default : Yes
Forced : No

Audio #1
ID : 2
Format : AC-3
Format/Info : Audio Coding 3
Commercial name : Dolby Digital
Codec ID : A_AC3
Duration : 1 h 26 min
Bit rate mode : Constant
Bit rate : 448 kb/s
Channel(s) : 2 channels
Channel layout : L R
Sampling rate : 48.0 kHz
Frame rate : 31.250 FPS (1536 SPF)
Compression mode : Lossy
Stream size : 277 MiB (16%)
Title : Stereo
Language : English
Service kind : Complete Main
Default : Yes
Forced : No

Audio #2
ID : 3
Format : AC-3
Format/Info : Audio Coding 3
Commercial name : Dolby Digital
Codec ID : A_AC3
Duration : 1 h 26 min
Bit rate mode : Constant
Bit rate : 320 kb/s
Channel(s) : 6 channels
Channel layout : L R C LFE Ls Rs
Sampling rate : 48.0 kHz
Frame rate : 31.250 FPS (1536 SPF)
Compression mode : Lossy
Stream size : 198 MiB (12%)
Title : Surround 5.1
Language : English
Service kind : Complete Main
Default : No
Forced : No

Audio #3
ID : 4
Format : AC-3
Format/Info : Audio Coding 3
Commercial name : Dolby Digital
Codec ID : A_AC3
Duration : 1 h 26 min
Bit rate mode : Constant
Bit rate : 320 kb/s
Channel(s) : 2 channels
Channel layout : L R
Sampling rate : 48.0 kHz
Frame rate : 31.250 FPS (1536 SPF)
Compression mode : Lossy
Stream size : 198 MiB (12%)
Title : Stereo
Language : English
Service kind : Complete Main
Default : No
Forced : No

Text #1
ID : 5
Format : VobSub
Muxing mode : zlib
Codec ID : S_VOBSUB
Codec ID/Info : Picture based subtitle format used on DVDs
Duration : 1 h 21 min
Bit rate : 1 155 b/s
Count of elements : 679
Stream size : 692 KiB (0%)
Language : Portuguese
Default : No
Forced : No

Text #2
ID : 6
Format : VobSub
Muxing mode : zlib
Codec ID : S_VOBSUB
Codec ID/Info : Picture based subtitle format used on DVDs
Duration : 1 h 21 min
Bit rate : 1 112 b/s
Count of elements : 679
Stream size : 666 KiB (0%)
Language : English
Default : Yes
Forced : No

Text #3
ID : 7
Format : VobSub
Muxing mode : zlib
Codec ID : S_VOBSUB
Codec ID/Info : Picture based subtitle format used on DVDs
Duration : 1 h 21 min
Bit rate : 1 087 b/s
Count of elements : 679
Stream size : 651 KiB (0%)
Language : Spanish
Default : No
Forced : No

Text #4
ID : 8
Format : VobSub
Muxing mode : zlib
Codec ID : S_VOBSUB
Codec ID/Info : Picture based subtitle format used on DVDs
Duration : 1 h 21 min
Bit rate : 1 172 b/s
Count of elements : 679
Stream size : 702 KiB (0%)
Language : French
Default : No
Forced : No

Menu
00:00:00.066 : en:Chapter 01
00:02:10.196 : en:Chapter 02
00:02:40.059 : en:Chapter 03
00:07:56.375 : en:Chapter 04
00:16:40.399 : en:Chapter 05
00:22:36.755 : en:Chapter 06
00:25:33.932 : en:Chapter 07
00:28:26.604 : en:Chapter 08
00:30:17.215 : en:Chapter 09
00:32:55.373 : en:Chapter 10
00:39:28.766 : en:Chapter 11
00:41:13.370 : en:Chapter 12
00:43:01.478 : en:Chapter 13
00:48:20.297 : en:Chapter 14
00:53:11.588 : en:Chapter 15
00:55:38.234 : en:Chapter 16
01:01:27.083 : en:Chapter 17
01:06:04.360 : en:Chapter 18
01:10:36.131 : en:Chapter 19
01:18:10.085 : en:Chapter 20




Screenshots DVDRip (click to enlarge to original size):

At Midnight I'll Take Your Soul / À Meia-Noite Levarei Sua Alma (1964)






More in My Blog



If you like this release please visit my blog
In it you will find "DVDRip" releases in different languages