Automata / Страховщик (2014)

Posted By: RSU75
Automata / Страховщик (2014)

Automata / Страховщик (2014)
BDRip | MKV | AVC 1280x542, ~ 5.2 Mbps | 1hr 49mn | 4.66 GB
English: AC3, 6 ch, 448 kbps; Russian: AC3, 2 ch, 384 kbps
Subtitles: English, Russian
Genre: Sci-Fi | Thriller
IMDB Rating: 6.1/10 (10.727 votes)


Director: Gabe Ibáñez
Writers: Gabe Ibáñez, Igor Legarreta
Stars: Antonio Banderas, Birgitte Hjort Sørensen, Dylan McDermott

Jacq Vaucan is an insurance agent of ROC robotics corporation who investigates cases of robots violating their primary protocols against harming humans. What he discovers will have profound consequences for the future of humanity.


General
Unique ID : 254412407374492333984721767853448051935 (0xBF660C1FB1C2FBEF85435007FD913CDF)
Complete name : D:\Atmt.14.7p.mkv
Format : Matroska
Format version : Version 4 / Version 2
File size : 4.66 GiB
Duration : 1h 49mn
Overall bit rate : 6 072 Kbps
Movie name : Avaxhm.com
Encoded date : UTC 2014-11-08 05:08:42
Writing application : mkvmerge v7.2.0 ('On Every Street') 32bit built on Sep 13 2014 15:42:11
Writing library : libebml v1.3.0 + libmatroska v1.4.1
_STATISTICS_WRITING_APP : mkvmerge v7.2.0 ('On Every Street') 32bit built on Sep 13 2014 15:42:11
_STATISTICS_WRITING_DATE_UTC : 2014-11-08 05:08:42
_STATISTICS_TAGS : BPS DURATION NUMBER_OF_FRAMES NUMBER_OF_BYTES
DURATION : 01:44:00.685000000
NUMBER_OF_FRAMES : 936
NUMBER_OF_BYTES : 53888

Video
ID : 1
Format : AVC
Format/Info : Advanced Video Codec
Format profile : High@L4.1
Format settings, CABAC : Yes
Format settings, ReFrames : 11 frames
Codec ID : V_MPEG4/ISO/AVC
Duration : 1h 49mn
Bit rate : 5 236 Kbps
Width : 1 280 pixels
Height : 542 pixels
Display aspect ratio : 2.35:1
Frame rate mode : Constant
Frame rate : 23.976 fps
Color space : YUV
Chroma subsampling : 4:2:0
Bit depth : 8 bits
Scan type : Progressive
Bits/(Pixel*Frame) : 0.315
Stream size : 3.93 GiB (84%)
Title : CHD
Writing library : x264 core 142 r2431 ac76440
Encoding settings : cabac=1 / ref=11 / deblock=1:-3:-3 / analyse=0x3:0x113 / me=umh / subme=10 / psy=1 / psy_rd=1.00:0.05 / mixed_ref=1 / me_range=32 / chroma_me=1 / trellis=2 / 8x8dct=1 / cqm=0 / deadzone=21,11 / fast_pskip=0 / chroma_qp_offset=-2 / threads=18 / lookahead_threads=1 / sliced_threads=0 / nr=0 / decimate=1 / interlaced=0 / bluray_compat=0 / constrained_intra=0 / bframes=4 / b_pyramid=2 / b_adapt=2 / b_bias=0 / direct=3 / weightb=1 / open_gop=0 / weightp=2 / keyint=250 / keyint_min=23 / scenecut=40 / intra_refresh=0 / rc=2pass / mbtree=0 / bitrate=5236 / ratetol=1.0 / qcomp=0.70 / qpmin=0 / qpmax=69 / qpstep=4 / cplxblur=20.0 / qblur=0.5 / ip_ratio=1.40 / pb_ratio=1.30 / aq=2:0.90
Language : English
Default : Yes
Forced : No
_STATISTICS_WRITING_APP : mkvmerge v7.2.0 ('On Every Street') 32bit built on Sep 13 2014 15:42:11
_STATISTICS_WRITING_DATE_UTC : 2014-11-08 05:08:42
_STATISTICS_TAGS : BPS DURATION NUMBER_OF_FRAMES NUMBER_OF_BYTES
DURATION : 01:49:54.166000000
NUMBER_OF_FRAMES : 158102
NUMBER_OF_BYTES : 4317438661

Audio #1
ID : 2
Format : AC-3
Format/Info : Audio Coding 3
Mode extension : CM (complete main)
Format settings, Endianness : Big
Codec ID : A_AC3
Duration : 1h 49mn
Bit rate mode : Constant
Bit rate : 448 Kbps
Channel(s) : 6 channels
Channel positions : Front: L C R, Side: L R, LFE
Sampling rate : 48.0 KHz
Bit depth : 16 bits
Compression mode : Lossy
Stream size : 352 MiB (7%)
Language : English
Default : Yes
Forced : No

Audio #2
ID : 3
Format : AC-3
Format/Info : Audio Coding 3
Mode extension : CM (complete main)
Format settings, Endianness : Big
Codec ID : A_AC3
Duration : 1h 49mn
Bit rate mode : Constant
Bit rate : 384 Kbps
Channel(s) : 2 channels
Channel positions : Front: L R
Sampling rate : 48.0 KHz
Bit depth : 16 bits
Compression mode : Lossy
Stream size : 302 MiB (6%)
Title : iTunes
Language : Russian
Default : No
Forced : No

Text #1
ID : 4
Format : UTF-8
Codec ID : S_TEXT/UTF8
Codec ID/Info : UTF-8 Plain Text
Language : English
Default : No
Forced : No

Text #2
ID : 5
Format : UTF-8
Codec ID : S_TEXT/UTF8
Codec ID/Info : UTF-8 Plain Text
Language : Russian
Default : No
Forced : No

Menu
00:00:00.000 : en:00:00:00.000
00:09:40.455 : en:00:09:40.455
00:18:46.917 : en:00:18:46.917
00:28:32.836 : en:00:28:32.836
00:39:07.095 : en:00:39:07.095
00:47:33.476 : en:00:47:33.476
00:56:55.954 : en:00:56:55.954
01:06:05.503 : en:01:06:05.503
01:17:27.810 : en:01:17:27.810
01:26:11.958 : en:01:26:11.958
01:34:06.474 : en:01:34:06.474
01:44:53.412 : en:01:44:53.412



Название: Страховщик
Оригинальное название: Automata
Год выпуска: 2014
Жанр: Фантастика, триллер
Выпущено: Испания, Болгария
Режиссер: Габе Ибаньес
В ролях: Антонио Бандерас, Биргитта Йорт Сёренсен, Мелани Гриффит, Дилан МакДермотт, Роберт Форстер, Тим МакИннерни

О фильме: Главным героем фильма станет страховой агент компании по изготовлению роботов Жак Вокан, который обнаруживает, что изобретаемые роботы создаются не для эксплуатации, а для истребления.

Русский перевод: Дублированный (iTunes Russia)


Screenshots (click to enlarge to original size):

Automata / Страховщик (2014)

Automata / Страховщик (2014)

Automata / Страховщик (2014)

Automata / Страховщик (2014)

Automata / Страховщик (2014)



–––––––––––––––––––––––––––––––––––––––-
>>> Other BDRip <<< OR >>> "Sci-Fi" <<<
–––––––––––––––––––––––––––––––––––––––-
>>> Visit Blog RSU75 Here <<<
–––––––––––––––––––––––––––––––––––––––-