BBC - Britain and the Sea (2013)

Posted By: Polik88
BBC - Britain and the Sea (2013)

BBC - Britain and the Sea (2013)
PDTV | English | MP4 | 832x468 | AVC 1507 Kbps 25.000 fps | AAC 128 Kbps 48.0 khz | 4x59mn | 4x695 MB
Genre: Documentary

David Dimbleby takes to his wooden sailing boat to explore Britain's rich maritime heritage.

Part 1: Adventure and Exploration
David Dimbleby sails the south west coast of England - along the coast of Devon and Cornwall - in his own sailing boat, Rocket, exploring maritime history, art and architecture as he goes. Caught up in stormy weather, he makes it to safety in the nick of time, to tell the story of Sir Francis Drake and a fantastic array of adventurers, explorers, pirates and smugglers. It's also a chance for David to enjoy some of Britain's most beautiful coastline and turn his hand to a bit of art himself. David also gingerly submits himself to one of the oldest maritime art forms of all - the art of the tattoo!

Part 2: Invasion and Defence
David Dimbleby continues his voyage round Britain, sailing his boat Rocket along the south east coast from Hampshire to Kent. This was the front line coast, the edge of Britain essential to its defence and the first point of attack for invasion forces. From the great battleships of Nelson to the sea forts of Henry VIII, this is a story that embraces Britain's darkest and most heroic moments.

Part 3: Pleasure and Escape
This third episode traces the crucial importance of the sea to Britain's trade and to individual livelihoods of coastal communities. Joined on this leg of his epic sail by his son Fred, David follows the trade routes of the west coast of Scotland along the monumental channels that cut through the Romantic Highlands and brought wealth and prosperity to the heart of Scotland. The journey starts at Craobh Haven and takes David along the Crinan Canal, around the Isle of Bute and up the River Clyde towards Glasgow.

Part 4: Trade and Romance
Having examined the sea as a source of exploration, defence and trade, David Dimbleby explores how it emerged as a source of pleasure, Punch and Judy and sand sculpture. Starting at Gorleston-on-Sea, David explores the creation of a seaside holiday culture that remains uniquely British to this day. Sailing down the Suffolk and Essex coasts and into the Thames, David also shows how the sea became an irresistible subject for our most celebrated artists and architects, before finally docking in the very heart of British maritime power: Greenwich.
General
Complete name : Britain.and.the.Sea.Series.1.1of4.Adventure.and.Exploration.mp4
Format : MPEG-4
Format profile : Base Media
Codec ID : isom
File size : 696 MiB
Duration : 59mn 25s
Overall bit rate mode : Variable
Overall bit rate : 1 637 Kbps
Encoded date : UTC 2013-12-11 12:13:54
Tagged date : UTC 2013-12-11 12:13:54

Video
ID : 1
Format : AVC
Format/Info : Advanced Video Codec
Format profile : Main@L3.0
Format settings, CABAC : Yes
Format settings, ReFrames : 1 frame
Format settings, GOP : M=1, N=12
Codec ID : avc1
Codec ID/Info : Advanced Video Coding
Duration : 59mn 25s
Bit rate : 1 507 Kbps
Maximum bit rate : 5 339 Kbps
Width : 832 pixels
Height : 468 pixels
Display aspect ratio : 16:9
Frame rate mode : Constant
Frame rate : 25.000 fps
Color space : YUV
Chroma subsampling : 4:2:0
Bit depth : 8 bits
Scan type : Progressive
Bits/(Pixel*Frame) : 0.155
Stream size : 640 MiB (92%)
Encoded date : UTC 2013-12-11 08:43:13
Tagged date : UTC 2013-12-11 12:14:34

Audio
ID : 2
Format : AAC
Format/Info : Advanced Audio Codec
Format profile : LC
Codec ID : 40
Duration : 59mn 25s
Bit rate mode : Variable
Bit rate : 128 Kbps
Maximum bit rate : 155 Kbps
Channel(s) : 2 channels
Channel positions : Front: L R
Sampling rate : 48.0 KHz
Compression mode : Lossy
Stream size : 54.4 MiB (8%)
Encoded date : UTC 2013-12-11 12:14:31
Tagged date : UTC 2013-12-11 12:14:34

Text
ID : 3
Format : Timed text
Codec ID : tx3g
Duration : 59mn 4s
Bit rate mode : Variable
Bit rate : 87 bps
Stream size : 37.7 KiB (0%)
Encoded date : UTC 2013-12-11 12:14:34
Tagged date : UTC 2013-12-11 12:14:34

Screenshots

BBC - Britain and the Sea (2013)

BBC - Britain and the Sea (2013)

BBC - Britain and the Sea (2013)

no mirrors please.
Visit Polik88 Blog Here
no password

BBC - Britain and the Sea (2013)