Subcategories

BBC - Blue Planet II: Part 2 The Deep (2017)

Posted By: notbanned
BBC - Blue Planet II: Part 2 The Deep (2017)

BBC - Blue Planet II: Part 2 The Deep (2017)
PDTV | 832x468 | .MP4/AVC @ 1518 Kbps | 58 min 16 s | 701 MiB
Audio: English AAC 160 kbps, 2 channels | Subs: English
Genre: Documentary

The deep is perhaps the most hostile environment on earth, at least to us - a world of crushing pressure, brutal cold and utter darkness. We have barely begun to explore it, and yet it is the largest living space on the planet. Scientists already think that there is more life in the deep than anywhere else on earth. This episode takes us on an epic journey into the unknown, a realm that feels almost like science fiction. We discover alien worlds, bizarre creatures and extraordinary new behaviours never seen before. We encounter savage hordes of Humboldt squid hunting lanternfish in the depths and coral gardens flourishing in absolute darkness, with more species of coral to be found in the deep than on shallow tropical reefs.. Narrated by David Attenborough.


General
Complete name : BBC.Blue.Planet.II.Part.2.The.Deep.PDTV.mp4
Format : MPEG-4
Format profile : Base Media
Codec ID : isom (isom)
File size : 701 MiB
Duration : 58 min 16 s
Overall bit rate mode : Variable
Overall bit rate : 1 681 kb/s

Video
ID : 1
Format : AVC
Format/Info : Advanced Video Codec
Format profile : Main@L3.1
Format settings, CABAC : Yes
Format settings, ReFrames : 1 frame
Format settings, GOP : M=1, N=12
Codec ID : avc1
Codec ID/Info : Advanced Video Coding
Duration : 58 min 16 s
Bit rate : 1 518 kb/s
Maximum bit rate : 6 248 kb/s
Width : 832 pixels
Height : 468 pixels
Display aspect ratio : 16:9
Frame rate mode : Constant
Frame rate : 25.000 FPS
Color space : YUV
Chroma subsampling : 4:2:0
Bit depth : 8 bits
Scan type : Progressive
Bits/(Pixel*Frame) : 0.156
Stream size : 633 MiB (90%)
Language : English
Encoded date : UTC 2017-11-05 21:49:52
Tagged date : UTC 2017-11-05 22:31:13

Audio
ID : 2
Format : AAC
Format/Info : Advanced Audio Codec
Format profile : LC
Codec ID : 40
Duration : 58 min 16 s
Bit rate mode : Variable
Bit rate : 160 kb/s
Maximum bit rate : 237 kb/s
Channel(s) : 2 channels
Channel positions : Front: L R
Sampling rate : 48.0 kHz
Frame rate : 46.875 FPS (1024 spf)
Compression mode : Lossy
Stream size : 66.7 MiB (10%)
Encoded date : UTC 2017-11-05 22:31:06
Tagged date : UTC 2017-11-05 22:31:13

Text
ID : 3
Format : Timed Text
Codec ID : tx3g
Duration : 57 min 45 s
Bit rate mode : Variable
Bit rate : 84 b/s
Stream size : 35.6 KiB (0%)
Forced : No
Encoded date : UTC 2017-11-05 22:31:13
Tagged date : UTC 2017-11-05 22:31:13


Screenshots:

BBC - Blue Planet II: Part 2 The Deep (2017)

BBC - Blue Planet II: Part 2 The Deep (2017)

BBC - Blue Planet II: Part 2 The Deep (2017)

BBC - Blue Planet II: Part 2 The Deep (2017)