BBC - Boy George and Culture Club: Karma to Calamity (2015)

Posted By: notbanned
720p (HD) / HDTV IMDb
BBC - Boy George and Culture Club: Karma to Calamity (2015)

BBC - Boy George and Culture Club: Karma to Calamity (2015)
HDTV | 1280x720 | .MKV/AVC @ 2724 Kbps | 59 min 0 s | 1.18 GiB
Audio: English AAC 217 kbps, 2 channels | Subs: English
Genre: Documentary

In the early 1980s, Culture Club was one of the biggest bands in the world, selling 150 million records. In 2014 they decided to reform to record a new album and embark on a UK and US tour. Mike Nicholls has unique access, following the band as they first meet in George's London home to write new material. However, it is not long before creative differences and tensions from their past begin to emerge. Faultlines develop further when the band travel to Spain to record the new album, spending two weeks working and living together in a remote recording studio. As the band return to London to prepare for the tour, they suffer a Twitter mauling after their first big public performance on Strictly Come Dancing. Relations are even more strained when George and the band sign to separate managers and a sudden illness threatens the whole reunion. The film examines the themes of success, fame and ego, and reveals the personalities behind one of the most iconic bands of all time.

General
Unique ID : 255681201174794855948357833027299907861 (0xC05A687CE86CB546D14B6641C1CD1915)
Complete name : BBC.Boy.George.and.Culture.Club.Karma.to.Calamity.720p.mkv
Format : Matroska
Format version : Version 4 / Version 2
File size : 1.18 GiB
Duration : 59 min 0 s
Overall bit rate : 2 855 kb/s

Video
ID : 1
Format : AVC
Format/Info : Advanced Video Codec
Format profile : High@L3.2
Format settings, CABAC : Yes
Format settings, ReFrames : 4 frames
Codec ID : V_MPEG4/ISO/AVC
Duration : 59 min 0 s
Bit rate : 2 724 kb/s
Width : 1 280 pixels
Height : 720 pixels
Display aspect ratio : 16:9
Frame rate mode : Constant
Frame rate : 50.000 FPS
Color space : YUV
Chroma subsampling : 4:2:0
Bit depth : 8 bits
Scan type : Progressive
Bits/(Pixel*Frame) : 0.059
Stream size : 1.12 GiB (95%)
Encoding settings : cabac=1 / ref=3 / deblock=1:0:0 / analyse=0x3:0x113 / me=umh / subme=9 / psy=1 / psy_rd=1.00:0.00 / mixed_ref=1 / me_range=24 / chroma_me=1 / trellis=1 / 8x8dct=1 / cqm=0 / deadzone=21,11 / fast_pskip=0 / chroma_qp_offset=-2 / threads=3 / lookahead_threads=1 / sliced_threads=0 / nr=0 / decimate=1 / interlaced=0 / bluray_compat=0 / constrained_intra=0 / bframes=6 / b_pyramid=2 / b_adapt=2 / b_bias=0 / direct=1 / weightb=1 / open_gop=0 / weightp=2 / keyint=500 / keyint_min=50 / scenecut=40 / intra_refresh=0 / rc_lookahead=40 / rc=crf / mbtree=1 / crf=20.0 / qcomp=0.60 / qpmin=0 / qpmax=69 / qpstep=4 / ip_ratio=1.40 / aq=1:1.00
Language : English
Default : Yes
Forced : No
Color range : Limited
Color primaries : BT.709
Transfer characteristics : BT.709
Matrix coefficients : BT.709

Audio
ID : 2
Format : AAC
Format/Info : Advanced Audio Codec
Format profile : LC
Codec ID : A_AAC
Duration : 59 min 0 s
Bit rate : 127 kb/s
Channel(s) : 2 channels
Channel positions : Front: L R
Sampling rate : 48.0 kHz
Frame rate : 46.875 FPS (1024 spf)
Compression mode : Lossy
Delay relative to video : 9 ms
Stream size : 53.7 MiB (4%)
Language : English
Default : Yes
Forced : No

Text
ID : 3
Format : UTF-8
Codec ID : S_TEXT/UTF8
Codec ID/Info : UTF-8 Plain Text
Duration : 58 min 56 s
Bit rate : 106 b/s
Count of elements : 1165
Stream size : 45.9 KiB (0%)
Language : English
Default : No
Forced : No


Screenshots:

BBC - Boy George and Culture Club: Karma to Calamity (2015)

BBC - Boy George and Culture Club: Karma to Calamity (2015)

BBC - Boy George and Culture Club: Karma to Calamity (2015)

BBC - Boy George and Culture Club: Karma to Calamity (2015)