BBC Arena - Brian Eno - Another Green World (2010)

Posted By: notbanned
1080p (FullHD) / HDTV
BBC Arena - Brian Eno - Another Green World (2010)

BBC Arena - Brian Eno - Another Green World (2010)
HDTV | 1920x1080 | .MKV/AVC @ 5337 Kbps | 58 min 46 s | 2.27 GiB
Audio: English AC3 192 kbps, 2 channels | Subs: English
Genre: Documentary

From the schoolboy who would cycle to the seashore to look for fossils, Eno has been driven by the search for the connections between things. Here, he gives an insight into his fascinating and unique take on the nature of music today. Eno discusses what music means to him, and how he uses it to create an alternate reality, as well as the influences of modern technology in changing the way we are able to understand and develop both music and sound.

General
Unique ID : 202115436673471056898141698607356886127 (0x980E046555807687B89F13FFF374BC6F)
Complete name : BBC.Brian.Eno.Another.Green.World.1080p.mkv
Format : Matroska
Format version : Version 4 / Version 2
File size : 2.27 GiB
Duration : 58 min 46 s
Overall bit rate : 5 531 kb/s

Video
ID : 1
Format : AVC
Format/Info : Advanced Video Codec
Format profile : High@L4
Format settings, CABAC : Yes
Format settings, ReFrames : 4 frames
Codec ID : V_MPEG4/ISO/AVC
Duration : 58 min 46 s
Bit rate : 5 337 kb/s
Width : 1 920 pixels
Height : 1 080 pixels
Display aspect ratio : 16:9
Frame rate mode : Variable
Frame rate : 25.188 FPS
Original frame rate : 25.000 FPS
Standard : Component
Color space : YUV
Chroma subsampling : 4:2:0
Bit depth : 8 bits
Scan type : MBAFF
Bits/(Pixel*Frame) : 0.102
Stream size : 2.19 GiB (96%)
Default : Yes
Forced : No
Color range : Limited
Color primaries : BT.709
Transfer characteristics : BT.709
Matrix coefficients : BT.709

Audio
ID : 2
Format : AC-3
Format/Info : Audio Coding 3
Format settings, Endianness : Big
Codec ID : A_AC3
Duration : 58 min 46 s
Bit rate mode : Constant
Bit rate : 192 kb/s
Channel(s) : 2 channels
Channel positions : Front: L R
Sampling rate : 48.0 kHz
Frame rate : 31.250 FPS (1536 spf)
Bit depth : 16 bits
Compression mode : Lossy
Stream size : 80.7 MiB (3%)
Language : English
Service kind : Complete Main
Default : Yes
Forced : No

Text
ID : 3
Format : UTF-8
Codec ID : S_TEXT/UTF8
Codec ID/Info : UTF-8 Plain Text
Duration : 57 min 55 s
Bit rate : 84 b/s
Count of elements : 671
Stream size : 35.6 KiB (0%)
Language : English
Default : Yes
Forced : No


Screenshots:

BBC Arena - Brian Eno - Another Green World (2010)

BBC Arena - Brian Eno - Another Green World (2010)

BBC Arena - Brian Eno - Another Green World (2010)

BBC Arena - Brian Eno - Another Green World (2010)