BBC - Charles Darwin and the Tree of Life (2009)

Posted By: notbanned
BBC - Charles Darwin and the Tree of Life (2009)

BBC - Charles Darwin and the Tree of Life (2009)
HDTV | 1920x1080 | .MP4/AVC @ 2713 Kbps | 59mn 11s | 1.20 GiB
Audio: English AAC 192 kbps, 2 channels | Subs: English
Genre: Documentary

David Attenborough asks three key questions: how and why did Darwin come up with his theory of evolution? Why do we think he was right? And why is it more important now than ever before? David starts his journey in Darwin's home at Down House in Kent, where Darwin worried and puzzled over the origins of life. He goes back to his roots in Leicestershire, where he hunted for fossils as a child and where another schoolboy unearthed a significant find in the 1950s, and he revisits Cambridge University, where both he and Darwin studied and where many years later the DNA double helix was discovered, providing the foundations for genetics.


General
Complete name : BBC.Charles.Darwin.and.the.Tree.of.Life.1080p.mp4
Format : MPEG-4
Format profile : Base Media
Codec ID : isom
File size : 1.20 GiB
Duration : 59mn 11s
Overall bit rate mode : Variable
Overall bit rate : 2 905 Kbps

Video
ID : 1
Format : HEVC
Format/Info : High Efficiency Video Coding
Format profile : Main 10@L4@Main
Codec ID : hvc1
Codec ID/Info : High Efficiency Video Coding
Duration : 59mn 11s
Bit rate : 2 713 Kbps
Maximum bit rate : 21.4 Mbps
Width : 1 920 pixels
Height : 1 080 pixels
Display aspect ratio : 16:9
Frame rate mode : Constant
Frame rate : 25.000 fps
Color space : YUV
Chroma subsampling : 4:2:0
Bit depth : 10 bits
Bits/(Pixel*Frame) : 0.052
Stream size : 1.12 GiB (93%)
Encoding settings : wpp / ctu=64 / min-cu-size=8 / max-tu-size=32 / tu-intra-depth=1 / tu-inter-depth=1 / me=1 / subme=2 / merange=57 / no-rect / no-amp / max-merge=2 / temporal-mvp / no-early-skip / rskip / rdpenalty=0 / no-tskip / no-tskip-fast / strong-intra-smoothing / no-lossless / no-cu-lossless / no-constrained-intra / no-fast-intra / no-open-gop / no-temporal-layers / interlace=0 / keyint=250 / min-keyint=25 / scenecut=40 / rc-lookahead=20 / lookahead-slices=6 / bframes=5 / bframe-bias=0 / b-adapt=2 / ref=3 / limit-refs=3 / no-limit-modes / weightp / weightb / aq-mode=1 / qg-size=32 / aq-strength=1.00 / cbqpoffs=0 / crqpoffs=0 / rd=3 / psy-rd=2.00 / rdoq-level=0 / psy-rdoq=0.00 / log2-max-poc-lsb=8 / no-rd-refine / signhide / deblock=0:0 / sao / no-sao-non-deblock / b-pyramid / cutree / no-intra-refresh / rc=crf / crf=23.0 / qcomp=0.60 / qpmin=0 / qpmax=69 / qpstep=4 / ipratio=1.40 / pbratio=1.30
Encoded date : UTC 2016-10-01 10:28:58
Tagged date : UTC 2016-10-01 10:53:10

Audio
ID : 2
Format : AAC
Format/Info : Advanced Audio Codec
Format profile : HE-AAC / LC
Codec ID : 40
Duration : 59mn 11s
Source duration : 59mn 12s
Bit rate mode : Variable
Bit rate : 192 Kbps
Maximum bit rate : 277 Kbps
Channel(s) : 6 channels
Channel positions : Front: L C R, Side: L R, LFE
Sampling rate : 48.0 KHz / 24.0 KHz
Compression mode : Lossy
Stream size : 79.7 MiB (6%)
Source stream size : 79.7 MiB (6%)
Title : English
Language : English
Encoded date : UTC 2016-09-30 12:32:50
Tagged date : UTC 2016-10-01 10:53:10

Text
ID : 3
Format : Timed Text
Codec ID : tx3g
Duration : 58mn 18s
Bit rate mode : Variable
Bit rate : 87 bps
Stream size : 37.1 KiB (0%)
Title : English
Language : English
Encoded date : UTC 2016-10-01 10:53:10
Tagged date : UTC 2016-10-01 10:53:10


Screenshots:

BBC - Charles Darwin and the Tree of Life (2009)

BBC - Charles Darwin and the Tree of Life (2009)

BBC - Charles Darwin and the Tree of Life (2009)

BBC - Charles Darwin and the Tree of Life (2009)