BBC - David Hurn: A Life in Pictures (2017)

Posted By: notbanned
BBC - David Hurn: A Life in Pictures (2017)

BBC - David Hurn: A Life in Pictures (2017)
HDTV | 1024x576 | .MKV/AVC @ 1271 Kbps | 39 min 9 s | 374 MiB
Audio: English AAC 64 kbps, 2 channels | Subs: English
Genre: Documentary

The world-renowned Magnum Photos photographer David Hurn is Wales's most important living photographer. This year he is donating his archive to the National Museum Wales, alongside a unique collection of 700 photographs by other photographers, including Henri Cartier-Bresson, Bill Brandt and Dorothea Lange. It is a remarkable gift to the nation. As Magnum Photos celebrates 70 years at the forefront of photojournalism, this film celebrates one of its longest serving members and profiles David's extraordinary portfolio and bequest from a career spanning 60 years. David has spent his whole career capturing moments in time. Now 83, the film shows him pursuing new goals in his photography, in Wales and abroad, and reunites him with actress Jane Fonda, 50 years after he photographed her on the film set of Barbarella'. David's photographic career began when he photographed the Hungarian uprising against the Soviet state in 1956. His images were published in Picture Post. By the 60s he was one of London's leading young photographers. He took the iconic poster shot of Sean Connery as James Bond, was alongside the Beatles when they filmed A Hard Day's Night' and was on set with Jane Fonda. David was filmed for BBC's Monitor programme by his friend Ken Russell and was at the epicentre of a creative circle including fellow photographers, Sir Don McCullin and Philip Jones Griffiths. David reflects on this dynamic group, his younger self and that period in his life when he as at the heart of the Swinging Sixties.


General
Unique ID : 192501678883596189973310351377202077862 (0x90D2798A9223543D97B6471E08E2E0A6)
Complete name : BBC.David.Hurn.A.Life.in.Pictures.PDTV.mkv
Format : Matroska
Format version : Version 4 / Version 2
File size : 374 MiB
Duration : 39 min 9 s
Overall bit rate : 1 337 kb/s

Video
ID : 1
Format : AVC
Format/Info : Advanced Video Codec
Format profile : Main@L3.1
Format settings, CABAC : Yes
Format settings, ReFrames : 4 frames
Codec ID : V_MPEG4/ISO/AVC
Duration : 39 min 9 s
Bit rate : 1 271 kb/s
Width : 1 024 pixels
Height : 576 pixels
Display aspect ratio : 16:9
Frame rate mode : Constant
Frame rate : 25.000 FPS
Color space : YUV
Chroma subsampling : 4:2:0
Bit depth : 8 bits
Scan type : Progressive
Bits/(Pixel*Frame) : 0.086
Stream size : 356 MiB (95%)
Encoding settings : cabac=1 / ref=3 / deblock=1:0:0 / analyse=0x1:0x111 / me=umh / subme=9 / psy=1 / psy_rd=1.00:0.00 / mixed_ref=1 / me_range=16 / chroma_me=1 / trellis=1 / 8x8dct=0 / cqm=0 / deadzone=21,11 / fast_pskip=0 / chroma_qp_offset=-2 / threads=3 / lookahead_threads=1 / sliced_threads=0 / nr=0 / decimate=1 / interlaced=0 / bluray_compat=0 / constrained_intra=0 / bframes=6 / b_pyramid=2 / b_adapt=2 / b_bias=0 / direct=1 / weightb=1 / open_gop=0 / weightp=2 / keyint=250 / keyint_min=25 / scenecut=40 / intra_refresh=0 / rc_lookahead=40 / rc=crf / mbtree=1 / crf=20.0 / qcomp=0.60 / qpmin=0 / qpmax=69 / qpstep=4 / ip_ratio=1.40 / aq=1:1.00
Language : English
Default : Yes
Forced : No

Audio
ID : 2
Format : AAC
Format/Info : Advanced Audio Codec
Format profile : HE-AAC / LC
Codec ID : A_AAC
Duration : 39 min 8 s
Bit rate : 64.0 kb/s
Channel(s) : 2 channels
Channel positions : Front: L R
Sampling rate : 48.0 kHz / 24.0 kHz
Frame rate : 23.438 FPS (1024 spf)
Compression mode : Lossy
Delay relative to video : 31 ms
Stream size : 17.9 MiB (5%)
Language : English
Default : Yes
Forced : No

Text
ID : 3
Format : UTF-8
Codec ID : S_TEXT/UTF8
Codec ID/Info : UTF-8 Plain Text
Duration : 38 min 23 s
Bit rate : 102 b/s
Count of elements : 651
Stream size : 28.9 KiB (0%)
Language : English
Default : No
Forced : No


Screenshots:

BBC - David Hurn: A Life in Pictures (2017)

BBC - David Hurn: A Life in Pictures (2017)

BBC - David Hurn: A Life in Pictures (2017)

BBC - David Hurn: A Life in Pictures (2017)