Tags
Language
Tags

BBC - Rugby League's Legendary Watersplash Final (2020)

Posted By: notbanned
720p (HD) / HDTV IMDb
BBC - Rugby League's Legendary Watersplash Final (2020)

BBC - Rugby League's Legendary Watersplash Final (2020)
HDTV | 1280x720 | .MKV/AVC @ 4987 Kbps | 44 min 0 s | 1.57 GiB
Audio: English AAC 128 kbps, 2 channels | Subs: English
Genre: Documentary

The Rugby League Challenge Cup final in 1968 between Leeds and Wakefield Trinity produced one of the most dramatic moments ever seen at a major sporting event. With what looked like the easiest of kicks to win the Wembley showpiece, Don Fox of Wakefield somehow missed it. Leeds won 11-10 - and so began one of the most talked-about and replayed scenes of all time in British sport. This documentary, as told by Dave Woods, looks back at that amazing match as he speaks to members of both teams, including Don’s legendary brother Neil – who talks about the impact that fateful miss had on Don’s life and career.

General
Unique ID : 13603714301506556503375224865284139327 (0xA3BFAE60D54939047115EC5D123A93F)
Complete name : BBC.Documentaries.Rugby.Leagues.Legendary.Watersplash.Final.720p.mkv
Format : Matroska
Format version : Version 4 / Version 2
File size : 1.57 GiB
Duration : 44 min 0 s
Overall bit rate : 5 119 kb/s

Video
ID : 1
Format : AVC
Format/Info : Advanced Video Codec
Format profile : High@L3.2
Format settings, CABAC : Yes
Format settings, ReFrames : 4 frames
Codec ID : V_MPEG4/ISO/AVC
Duration : 44 min 0 s
Bit rate : 4 987 kb/s
Width : 1 280 pixels
Height : 720 pixels
Display aspect ratio : 16:9
Frame rate mode : Constant
Frame rate : 50.000 FPS
Standard : Component
Color space : YUV
Chroma subsampling : 4:2:0
Bit depth : 8 bits
Scan type : Progressive
Bits/(Pixel*Frame) : 0.108
Stream size : 1.53 GiB (97%)
Default : Yes
Forced : No
Color range : Limited
Color primaries : BT.709
Transfer characteristics : BT.709
Matrix coefficients : BT.709

Audio
ID : 2
Format : AAC
Format/Info : Advanced Audio Codec
Format profile : LC
Codec ID : A_AAC
Duration : 44 min 0 s
Bit rate : 128 kb/s
Channel(s) : 2 channels
Channel positions : Front: L R
Sampling rate : 48.0 kHz
Frame rate : 46.875 FPS (1024 spf)
Compression mode : Lossy
Delay relative to video : -20 ms
Stream size : 40.3 MiB (3%)
Language : English
Default : Yes
Forced : No

Text
ID : 3
Format : UTF-8
Codec ID : S_TEXT/UTF8
Codec ID/Info : UTF-8 Plain Text
Duration : 43 min 41 s
Bit rate : 87 b/s
Count of elements : 473
Stream size : 28.0 KiB (0%)
Default : Yes
Forced : No


Screenshots:

BBC - Rugby League's Legendary Watersplash Final (2020)

BBC - Rugby League's Legendary Watersplash Final (2020)

BBC - Rugby League's Legendary Watersplash Final (2020)

BBC - Rugby League's Legendary Watersplash Final (2020)