BBC - Fake or Fortune? Series 6 Part 1: Constable (2017)

Posted By: notbanned
BBC - Fake or Fortune? Series 6 Part 1: Constable (2017)

BBC - Fake or Fortune? Series 6 Part 1: Constable (2017)
HDTV | 1280x720 | .MP4/AVC @ 2320 Kbps | 58 min 0 s | 1.01 GiB
Audio: English AAC 160 kbps, 2 channels | Subs: English
Genre: Documentary

The team try to find out whether a beautiful English landscape is a work of national importance - a lost masterpiece by John Constable and quite possibly an alternative view of his greatest work, The Hay Wain. Now owned by a Gloucestershire businessman, the painting appears to have all the hallmarks of Constable's sketches - his more impressionistic, preparatory works. If genuine, it could be worth at least £2 million. The trouble is, Constable is one of the most faked artists of the 19th century, and the painting has a chequered past. Thirty years ago, several top Constable experts decided that it was not an authentic work. It is a particularly personal case for Philip Mould, who briefly owned the painting in the past but had to let it slip through his fingers after he failed in his attempts to prove its authenticity. Now scientific analysis techniques have moved on and neglected records can be searched more deeply online, can the latest advances and deep research into the picture's provenance turn up enough evidence to prove that it is a genuine work by John Constable?


General
Complete name : BBC.Fake.or.Fortune.Series.6.Part.1.Constable.720p.mp4
Format : MPEG-4
Format profile : Base Media
Codec ID : isom (isom)
File size : 1.01 GiB
Duration : 58 min 0 s
Overall bit rate mode : Variable
Overall bit rate : 2 484 kb/s

Video
ID : 1
Format : AVC
Format/Info : Advanced Video Codec
Format profile : High@L4.1
Format settings, CABAC : Yes
Format settings, ReFrames : 4 frames
Codec ID : avc1
Codec ID/Info : Advanced Video Coding
Duration : 58 min 0 s
Bit rate : 2 320 kb/s
Maximum bit rate : 10.5 Mb/s
Width : 1 280 pixels
Height : 720 pixels
Display aspect ratio : 16:9
Frame rate mode : Constant
Frame rate : 25.000 FPS
Color space : YUV
Chroma subsampling : 4:2:0
Bit depth : 8 bits
Scan type : Progressive
Bits/(Pixel*Frame) : 0.101
Stream size : 962 MiB (93%)
Encoding settings : cabac=1 / ref=1 / deblock=1:0:0 / analyse=0x3:0x3 / me=dia / subme=1 / psy=1 / psy_rd=1.00:0.00 / mixed_ref=0 / me_range=16 / chroma_me=1 / trellis=0 / 8x8dct=1 / cqm=0 / deadzone=21,11 / fast_pskip=1 / chroma_qp_offset=0 / threads=6 / lookahead_threads=1 / sliced_threads=0 / nr=0 / decimate=1 / interlaced=0 / bluray_compat=0 / constrained_intra=0 / bframes=3 / b_pyramid=2 / b_adapt=1 / b_bias=0 / direct=1 / weightb=1 / open_gop=0 / weightp=1 / keyint=250 / keyint_min=25 / scenecut=40 / intra_refresh=0 / rc_lookahead=0 / rc=crf / mbtree=0 / crf=22.0 / qcomp=0.60 / qpmin=0 / qpmax=69 / qpstep=4 / vbv_maxrate=62500 / vbv_bufsize=78125 / crf_max=0.0 / nal_hrd=none / ip_ratio=1.40 / pb_ratio=1.30 / aq=1:1.00
Encoded date : UTC 2017-08-20 20:15:46
Tagged date : UTC 2017-08-20 20:49:03
Color range : Limited
Color primaries : BT.709
Transfer characteristics : BT.709
Matrix coefficients : BT.709

Audio
ID : 2
Format : AAC
Format/Info : Advanced Audio Codec
Format profile : LC
Codec ID : 40
Duration : 58 min 0 s
Bit rate mode : Variable
Bit rate : 160 kb/s
Maximum bit rate : 204 kb/s
Channel(s) : 2 channels
Channel positions : Front: L R
Sampling rate : 48.0 kHz
Frame rate : 46.875 FPS (1024 spf)
Compression mode : Lossy
Stream size : 66.4 MiB (6%)
Encoded date : UTC 2017-08-20 20:48:56
Tagged date : UTC 2017-08-20 20:49:03

Text
ID : 3
Format : Timed Text
Codec ID : tx3g
Duration : 57 min 19 s
Bit rate mode : Variable
Bit rate : 236 b/s
Stream size : 99.2 KiB (0%)
Forced : No
Encoded date : UTC 2017-08-20 20:49:03
Tagged date : UTC 2017-08-20 20:49:03


Screenshots:

BBC - Fake or Fortune? Series 6 Part 1: Constable (2017)

BBC - Fake or Fortune? Series 6 Part 1: Constable (2017)

BBC - Fake or Fortune? Series 6 Part 1: Constable (2017)

BBC - Fake or Fortune? Series 6 Part 1: Constable (2017)