BBC - Grand Tours of Scotland's Lochs Series 1 (2017)

Posted By: notbanned
1080p (FullHD) / HDTV
BBC - Grand Tours of Scotland's Lochs Series 1 (2017)

BBC - Grand Tours of Scotland's Lochs Series 1 (2017)
HDTV | 1920x1080 | .MKV/AVC @ 5616 Kbps | 6x~28min | 7.99 GiB
Audio: English AAC 132 kbps, 2 channels | Subs: English
Genre: Documentary

Paul Murton takes a tour of Scotland's lochs.
Part 1: Legends of the West
Paul explores the wilds of Loch Etive, from the spectacular tidal race of the Falls of Lora, where kayakers revel in the overfalls and ride a three-metre standing wave, to high-altitude camping on a hill opposite Buchaille Etive More, watching the sunset.

Part 2: Shelter from the Storm
Paul travels from Loch Gairloch to Loch Maree, a grand tour that includes meeting the king and queen of Islonia, matching a medieval feat of archery, diving on a wartime wreck in Loch Ewe and finding himself short-changed at the money tree on an island in Loch Maree.

Part 3: Taming the Wild
Paul begins his Grand Tour with a chilly swim across Loch Ba high on Rannoch Moor, struggles against the elements while trainspotting and meets some veteran Tunnel Tigers - men who tunnelled deep inside the Grampians, diverting water to hydroelectric schemes.

Part 4: Through the Rough Bounds
Paul travels into the secret heart of the Rough Bounds of Knoydart by way of Loch nan Umbh, Loch Morar, Loch Nevis and Loch Arkaig. He lifts the lid on the area's secret connection with the celebrated SOE (Special Operations Executive) which Churchill hoped would set Europe ablaze. On the shores of several lochs, agents were trained in the dark arts of sabotage. On Loch Morar, Paul meets a man who claims to have seen the legendary monster Morag (pronounced Voorag), before getting a ferry to Inverie in the heart of the Rough Bounds and searching for Jacobite gold beside Loch Arkaig.

Part 5: A Rock and a Hard Place
1.2 billion years ago, the far north of Sutherland was struck by a meteorite. The wreckage of this cataclysmic event has been almost completely worn away by time, but the rocks in the landscape still bear some traces, which Paul unpicks as he embarks on a grand tour from Lairg on Loch Shin to Lochinver and, finally, to the summit of Suilven - the sugarloaf mountain.

Part 6: An Enchanted Land
Paul explores some lochs close to Scotland's densely populated central belt. Starting on the banks of the most famous lake in Scotland - the Lake of Menteith - Paul wanders through an enchanting landscape, visiting Loch Ard, Loch Arklet, Loch Katrine and Loch Achray, before climbing a mountain in miniature, Ben Venue.

General
Unique ID : 315857408041929690691850906826890725263 (0xED9FEC8D426F02DBE47E6C1578F2C78F)
Complete name : BBC.Grand.Tours.of.Scotlands.Lochs.Series.1.1of6.Legends.of.the.West.1080p.mkv
Format : Matroska
Format version : Version 4 / Version 2
File size : 1.16 GiB
Duration : 28 min 58 s
Overall bit rate : 5 752 kb/s

Video
ID : 1
Format : AVC
Format/Info : Advanced Video Codec
Format profile : High@L4.1
Format settings, CABAC : Yes
Format settings, ReFrames : 4 frames
Codec ID : V_MPEG4/ISO/AVC
Duration : 28 min 58 s
Bit rate : 5 616 kb/s
Width : 1 920 pixels
Height : 1 080 pixels
Display aspect ratio : 16:9
Frame rate mode : Constant
Frame rate : 25.000 FPS
Color space : YUV
Chroma subsampling : 4:2:0
Bit depth : 8 bits
Scan type : Progressive
Bits/(Pixel*Frame) : 0.108
Stream size : 1.14 GiB (98%)
Encoding settings : cabac=1 / ref=4 / deblock=1:0:0 / analyse=0x3:0x113 / me=umh / subme=9 / psy=1 / psy_rd=1.00:0.00 / mixed_ref=1 / me_range=32 / chroma_me=1 / trellis=1 / 8x8dct=1 / cqm=0 / deadzone=21,11 / fast_pskip=0 / chroma_qp_offset=-2 / threads=3 / lookahead_threads=1 / sliced_threads=0 / nr=0 / decimate=1 / interlaced=0 / bluray_compat=0 / constrained_intra=0 / bframes=6 / b_pyramid=2 / b_adapt=2 / b_bias=0 / direct=1 / weightb=1 / open_gop=0 / weightp=2 / keyint=250 / keyint_min=25 / scenecut=40 / intra_refresh=0 / rc_lookahead=40 / rc=crf / mbtree=1 / crf=23.0 / qcomp=0.60 / qpmin=0 / qpmax=69 / qpstep=4 / ip_ratio=1.40 / aq=1:1.00
Language : English
Default : Yes
Forced : No
Color range : Limited
Color primaries : BT.709
Transfer characteristics : BT.709
Matrix coefficients : BT.709

Audio
ID : 2
Format : AAC
Format/Info : Advanced Audio Codec
Format profile : LC
Codec ID : A_AAC
Duration : 28 min 58 s
Bit rate : 132 kb/s
Channel(s) : 2 channels
Channel positions : Front: L R
Sampling rate : 48.0 kHz
Frame rate : 46.875 FPS (1024 spf)
Compression mode : Lossy
Delay relative to video : 9 ms
Stream size : 27.5 MiB (2%)
Language : English
Default : Yes
Forced : No

Text
ID : 3
Format : UTF-8
Codec ID : S_TEXT/UTF8
Codec ID/Info : UTF-8 Plain Text
Duration : 28 min 29 s
Bit rate : 113 b/s
Count of elements : 524
Stream size : 23.6 KiB (0%)
Language : English
Default : No
Forced : No


Screenshots:

BBC - Grand Tours of Scotland's Lochs Series 1 (2017)

BBC - Grand Tours of Scotland's Lochs Series 1 (2017)

BBC - Grand Tours of Scotland's Lochs Series 1 (2017)

BBC - Grand Tours of Scotland's Lochs Series 1 (2017)