BBC - Hollywood's Master of Myth - Joseph Campbell (1999)

Posted By: notbanned
1080p (FullHD) / HDTV
BBC - Hollywood's Master of Myth - Joseph Campbell (1999)

BBC - Hollywood's Master of Myth - Joseph Campbell (1999)
HDTV | 1920x1080 | .MKV/AVC @ 6340 Kbps | 38 min 10 s | 1.74 GiB
Audio: English AC3 192 kbps, 2 channels | Subs: English
Genre: Documentary

Documentary which tells the remarkable story of a man whose visionary ideas about myth helped shape the whole Star Wars cycle of films. Joseph Campbell's writings are the missing link between ancient myths and modern movies, Homer and Hollywood 'high concept'. His ideas about the universal appeal of stories involving a 'hero's journey' have also influenced films as diverse as Mad Max and Babe. Campbell himself was a reluctant hero, who lived a scholarly life - he didn't own a television and rarely went to the cinema. Yet Campbell remains a force in Hollywood. With contributions from George Lucas, director George Miller, and writers Robert McKee and Richard Adams, among others.

General
Unique ID : 165462356613595781377509497580085534899 (0x7C7AE406B0F5AB16D67A55D4EE4F60B3)
Complete name : BBC.Hollywoods.Master.of.Myth.Joseph.Campbell.mkv
Format : Matroska
Format version : Version 4 / Version 2
File size : 1.74 GiB
Duration : 38 min 10 s
Overall bit rate : 6 536 kb/s

Video
ID : 1
Format : AVC
Format/Info : Advanced Video Codec
Format profile : High@L4
Format settings, CABAC : Yes
Format settings, ReFrames : 4 frames
Format settings, GOP : M=8, N=24
Codec ID : V_MPEG4/ISO/AVC
Duration : 38 min 10 s
Bit rate : 6 340 kb/s
Width : 1 920 pixels
Height : 1 080 pixels
Display aspect ratio : 16:9
Frame rate mode : Variable
Frame rate : 32.204 FPS
Original frame rate : 25.000 FPS
Standard : Component
Color space : YUV
Chroma subsampling : 4:2:0
Bit depth : 8 bits
Scan type : MBAFF
Scan type, store method : Interleaved fields
Scan order : Top Field First
Bits/(Pixel*Frame) : 0.095
Stream size : 1.69 GiB (97%)
Default : Yes
Forced : No
Color range : Limited
Color primaries : BT.709
Transfer characteristics : BT.709
Matrix coefficients : BT.709

Audio
ID : 2
Format : AC-3
Format/Info : Audio Coding 3
Format settings, Endianness : Big
Codec ID : A_AC3
Duration : 38 min 10 s
Bit rate mode : Constant
Bit rate : 192 kb/s
Channel(s) : 2 channels
Channel positions : Front: L R
Sampling rate : 48.0 kHz
Frame rate : 31.250 FPS (1536 spf)
Bit depth : 16 bits
Compression mode : Lossy
Stream size : 52.4 MiB (3%)
Language : English
Service kind : Complete Main
Default : Yes
Forced : No

Text
ID : 3
Format : UTF-8
Codec ID : S_TEXT/UTF8
Codec ID/Info : UTF-8 Plain Text
Duration : 37 min 47 s
Bit rate : 79 b/s
Count of elements : 411
Stream size : 21.9 KiB (0%)
Language : English
Default : Yes
Forced : No


Screenshots:

BBC - Hollywood's Master of Myth - Joseph Campbell (1999)

BBC - Hollywood's Master of Myth - Joseph Campbell (1999)

BBC - Hollywood's Master of Myth - Joseph Campbell (1999)

BBC - Hollywood's Master of Myth - Joseph Campbell (1999)