BBC - Love and Drugs on the Street: Girls Sleeping Rough (2017)

Posted By: notbanned
720p (HD) / HDTV
BBC - Love and Drugs on the Street: Girls Sleeping Rough (2017)

BBC - Love and Drugs on the Street: Girls Sleeping Rough (2017)
HDTV | 1280x720 | .MP4/AVC @ 1950 Kbps | 3x~18min | 1.17 GiB
Audio: English AAC 160 kbps, 2 channels | Subs: English
Genre: Documentary

Eye-opening stories of the daily lives of women sleeping rough on Brighton’s streets.
Part 1: Survival
Filmed in Brighton and Hove, which has seen the UK’s biggest increase in homelessness over the past year, we meet Paige, who is 21 and sleeps in a graveyard; Tanya, who is 7 months pregnant and sleeps rough with her partner; and Jo-Jo, who is 21, smoking spice and sleeping in shop doorways.

Part 2: Mothers and Lovers
Paige has had a fresh start in a hostel but her daughter is being put up for adoption, while Maria has succumbed to the grip of heroin addiction, having had two children removed from her care. With around three-quarters of mothers sleeping on the streets having had kids taken away, can they break the vicious cycle?

Part 3: Break Up
The eye-opening daily life story of women sleeping rough on Brighton’s streets continues. As winter sets in Paige tries to put street life behind her, while Maria and Tony bed down with a single homeless woman.

General
Complete name : BBC.Love.and.dgs.on.the.Street.Girls.slping.Rough.Series.1.1of3.Survival.720p.mp4
Format : MPEG-4
Format profile : Base Media
Codec ID : isom (isom)
File size : 412 MiB
Duration : 18 min 34 s
Overall bit rate mode : Variable
Overall bit rate : 3 105 kb/s

Video
ID : 1
Format : AVC
Format/Info : Advanced Video Codec
Format profile : High@L4.1
Format settings, CABAC : Yes
Format settings, ReFrames : 4 frames
Codec ID : avc1
Codec ID/Info : Advanced Video Coding
Duration : 18 min 34 s
Bit rate : 2 950 kb/s
Maximum bit rate : 7 621 kb/s
Width : 1 280 pixels
Height : 720 pixels
Display aspect ratio : 16:9
Frame rate mode : Constant
Frame rate : 25.000 FPS
Color space : YUV
Chroma subsampling : 4:2:0
Bit depth : 8 bits
Scan type : Progressive
Bits/(Pixel*Frame) : 0.128
Stream size : 391 MiB (95%)
Encoding settings : cabac=1 / ref=1 / deblock=1:0:0 / analyse=0x3:0x3 / me=dia / subme=1 / psy=1 / psy_rd=1.00:0.00 / mixed_ref=0 / me_range=16 / chroma_me=1 / trellis=0 / 8x8dct=1 / cqm=0 / deadzone=21,11 / fast_pskip=1 / chroma_qp_offset=0 / threads=6 / lookahead_threads=1 / sliced_threads=0 / nr=0 / decimate=1 / interlaced=0 / bluray_compat=0 / constrained_intra=0 / bframes=3 / b_pyramid=2 / b_adapt=1 / b_bias=0 / direct=1 / weightb=1 / open_gop=0 / weightp=1 / keyint=250 / keyint_min=25 / scenecut=40 / intra_refresh=0 / rc_lookahead=0 / rc=abr / mbtree=0 / bitrate=2950 / ratetol=1.0 / qcomp=0.60 / qpmin=0 / qpmax=69 / qpstep=4 / vbv_maxrate=62500 / vbv_bufsize=78125 / nal_hrd=none / ip_ratio=1.40 / pb_ratio=1.30 / aq=1:1.00
Encoded date : UTC 2017-12-09 11:02:17
Tagged date : UTC 2017-12-09 12:07:47
Color range : Limited
Color primaries : BT.709
Transfer characteristics : BT.709
Matrix coefficients : BT.709

Audio
ID : 2
Format : AAC
Format/Info : Advanced Audio Codec
Format profile : LC
Codec ID : 40
Duration : 18 min 34 s
Bit rate mode : Variable
Bit rate : 160 kb/s
Maximum bit rate : 197 kb/s
Channel(s) : 2 channels
Channel positions : Front: L R
Sampling rate : 48.0 kHz
Frame rate : 46.875 FPS (1024 spf)
Compression mode : Lossy
Stream size : 21.2 MiB (5%)
Encoded date : UTC 2017-12-09 12:07:46
Tagged date : UTC 2017-12-09 12:07:47

Text
ID : 3
Format : Timed Text
Codec ID : tx3g
Duration : 18 min 7 s
Bit rate mode : Variable
Bit rate : 165 b/s
Stream size : 22.0 KiB (0%)
Forced : No
Encoded date : UTC 2017-12-09 12:07:47
Tagged date : UTC 2017-12-09 12:07:47


Screenshots:

BBC - Love and Drugs on the Street: Girls Sleeping Rough (2017)

BBC - Love and Drugs on the Street: Girls Sleeping Rough (2017)

BBC - Love and Drugs on the Street: Girls Sleeping Rough (2017)

BBC - Love and Drugs on the Street: Girls Sleeping Rough (2017)