Subcategories

BBC Natural World - Giant Squid: Filming the Impossible (2013)

Posted By: notbanned
BBC Natural World - Giant Squid: Filming the Impossible (2013)

BBC Natural World - Giant Squid: Filming the Impossible (2013)
HDTV | 1920x1080 | .MP4/AVC @ 3100 Kbps | 43mn 50s | 1013 MiB
Audio: English AAC 126 kbps, 2 channels | Subs: English
Genre: Documentary

David Attenborough narrates this documentary about the giant squid, a creature of legend and myth which even in the 21st century, has rarely been seen in it's natural environment. But now, an international team of scientists think they have finally found their lair, one thousand metres down, off the coast of Japan. This is the culmination of decades of research. The team deploys underwater robots and state of the art submersible vessels for a world first - to find and film the impossible.


General
Complete name : BBC.Natural.World.2013.Giant.Squid.Filming.the.Impossible.1080p.mp4
Format : MPEG-4
Format profile : Base Media
Codec ID : isom
File size : 1 013 MiB
Duration : 43mn 50s
Overall bit rate mode : Variable
Overall bit rate : 3 231 Kbps

Video
ID : 1
Format : HEVC
Format/Info : High Efficiency Video Coding
Format profile : Main 10@L4@Main
Codec ID : hvc1
Codec ID/Info : High Efficiency Video Coding
Duration : 43mn 50s
Bit rate : 3 100 Kbps
Maximum bit rate : 18.6 Mbps
Width : 1 920 pixels
Height : 1 080 pixels
Display aspect ratio : 16:9
Frame rate mode : Constant
Frame rate : 25.000 fps
Color space : YUV
Chroma subsampling : 4:2:0
Bit depth : 10 bits
Bits/(Pixel*Frame) : 0.060
Stream size : 972 MiB (96%)
Title : hevc@GPAC0.6.1-rev0-g72d766c-master
Writing library : x265 1.9+229-a932b4366235:[Windows][GCC 5.3.1][64 bit] 10bit
Encoding settings : wpp / ctu=64 / min-cu-size=8 / max-tu-size=32 / tu-intra-depth=1 / tu-inter-depth=1 / me=1 / subme=2 / merange=57 / no-rect / no-amp / max-merge=2 / temporal-mvp / no-early-skip / rskip / rdpenalty=0 / no-tskip / no-tskip-fast / strong-intra-smoothing / no-lossless / no-cu-lossless / no-constrained-intra / no-fast-intra / no-open-gop / no-temporal-layers / interlace=0 / keyint=250 / min-keyint=25 / scenecut=40 / rc-lookahead=20 / lookahead-slices=6 / bframes=6 / bframe-bias=0 / b-adapt=2 / ref=3 / limit-refs=3 / no-limit-modes / weightp / weightb / aq-mode=1 / qg-size=32 / aq-strength=1.00 / cbqpoffs=0 / crqpoffs=0 / rd=3 / psy-rd=2.00 / rdoq-level=0 / psy-rdoq=0.00 / no-rd-refine / signhide / deblock=0:0 / sao / no-sao-non-deblock / b-pyramid / cutree / no-intra-refresh / rc=crf / crf=21.0 / qcomp=0.60 / qpmin=0 / qpmax=51 / qpstep=4 / ipratio=1.40 / pbratio=1.30
Encoded date : UTC 2016-07-06 13:17:42
Tagged date : UTC 2016-07-06 13:28:44

Audio
ID : 2
Format : AAC
Format/Info : Advanced Audio Codec
Format profile : LC
Codec ID : 40
Duration : 43mn 50s
Source duration : 43mn 50s
Bit rate mode : Variable
Bit rate : 126 Kbps
Maximum bit rate : 169 Kbps
Channel(s) : 2 channels
Channel positions : Front: L R
Sampling rate : 48.0 KHz
Compression mode : Lossy
Stream size : 39.6 MiB (4%)
Source stream size : 39.6 MiB (4%)
Title : English
Language : English
Encoded date : UTC 2016-07-06 10:31:28
Tagged date : UTC 2016-07-06 13:28:44

Text
ID : 3
Format : Timed Text
Codec ID : tx3g
Duration : 43mn 15s
Bit rate mode : Variable
Bit rate : 70 bps
Stream size : 22.1 KiB (0%)
Title : English
Language : English
Encoded date : UTC 2016-07-06 13:28:44


Screenshots:

BBC Natural World - Giant Squid: Filming the Impossible (2013)

BBC Natural World - Giant Squid: Filming the Impossible (2013)

BBC Natural World - Giant Squid: Filming the Impossible (2013)

BBC Natural World - Giant Squid: Filming the Impossible (2013)