BBC - Patrick Kielty's Mulholland Drive (2016)

Posted By: notbanned
BBC - Patrick Kielty's Mulholland Drive (2016)

BBC - Patrick Kielty's Mulholland Drive (2016)
HDTV | 1280x720 | .MP4/AVC @ 2994 Kbps | 48mn 36s | 1.07 GiB
Audio: English AAC 160 kbps, 2 channels | Subs: English
Genre: Documentary

Patrick Kielty's journey to find the truth about William Mulholland, the man who provided water for Los Angeles. Patrick's family are water men - from his great-grandfather to his father, they all worked for the water company in Northern Ireland. Water runs in his veins, along with gin on a Sunday night. Nowadays his second home is Los Angeles, so he was surprised to discover that the man who gave LA its water, and hence made the city we know today possible, was from Belfast. That man was William Mulholland, and this is Patrick's journey to find out why no-one has really heard of him.


General
Complete name : BBC.Patrick.Kieltys.Mulholland.Drive.mp4
Format : MPEG-4
Format profile : Base Media
Codec ID : isom
File size : 1.07 GiB
Duration : 48mn 36s
Overall bit rate mode : Variable
Overall bit rate : 3 156 Kbps

Video
ID : 1
Format : AVC
Format/Info : Advanced Video Codec
Format profile : High@L4.1
Format settings, CABAC : No
Format settings, ReFrames : 1 frame
Format settings, GOP : M=1, N=12
Codec ID : avc1
Codec ID/Info : Advanced Video Coding
Duration : 48mn 36s
Bit rate : 2 994 Kbps
Maximum bit rate : 14.1 Mbps
Width : 1 280 pixels
Height : 720 pixels
Display aspect ratio : 16:9
Frame rate mode : Constant
Frame rate : 25.000 fps
Color space : YUV
Chroma subsampling : 4:2:0
Bit depth : 8 bits
Scan type : Progressive
Bits/(Pixel*Frame) : 0.130
Stream size : 1.02 GiB (95%)
Encoded date : UTC 2016-02-08 21:43:10
Tagged date : UTC 2016-02-08 23:17:47

Audio
ID : 2
Format : AAC
Format/Info : Advanced Audio Codec
Format profile : LC
Codec ID : 40
Duration : 48mn 35s
Bit rate mode : Variable
Bit rate : 160 Kbps
Maximum bit rate : 229 Kbps
Channel(s) : 2 channels
Channel positions : Front: L R
Sampling rate : 48.0 KHz
Compression mode : Lossy
Stream size : 55.6 MiB (5%)
Encoded date : UTC 2016-02-08 23:17:15
Tagged date : UTC 2016-02-08 23:17:47

Text
ID : 3
Format : Timed Text
Codec ID : tx3g
Duration : 47mn 48s
Bit rate mode : Variable
Bit rate : 103 bps
Stream size : 36.0 KiB (0%)
Encoded date : UTC 2016-02-08 23:17:47
Tagged date : UTC 2016-02-08 23:17:47


Screenshots:

BBC - Patrick Kielty's Mulholland Drive (2016)

BBC - Patrick Kielty's Mulholland Drive (2016)

BBC - Patrick Kielty's Mulholland Drive (2016)

BBC - Patrick Kielty's Mulholland Drive (2016)