BBC - Prom: David Bowie Prom (2016)

Posted By: notbanned
720p (HD) / WEB-DL
BBC - Prom: David Bowie Prom (2016)

BBC - Prom: David Bowie Prom (2016)
WEB-DL | 1280x720 | .MP4/AVC @ 2317 Kbps | 2 h 6 min | 2.13 GiB
Audio: English AAC 93.5 kbps, 2 channels | Subs: None
Genre: Documentary

The Proms pays tribute to David Bowie, the rock and pop legend, who died at the age of 69 in January this year and whose influence was felt in every field of the arts.

General
Complete name : BBC.Proms.David.Bowie.720p.mp4
Format : MPEG-4
Format profile : Base Media
Codec ID : isom (isom/iso2/avc1/mp41)
File size : 2.13 GiB
Duration : 2 h 6 min
Overall bit rate mode : Variable
Overall bit rate : 2 416 kb/s

Video
ID : 1
Format : AVC
Format/Info : Advanced Video Codec
Format profile : High@L4.1
Format settings, CABAC : Yes
Format settings, ReFrames : 2 frames
Codec ID : avc1
Codec ID/Info : Advanced Video Coding
Duration : 2 h 6 min
Bit rate mode : Variable
Bit rate : 2 317 kb/s
Maximum bit rate : 3 500 kb/s
Width : 1 280 pixels
Height : 720 pixels
Display aspect ratio : 16:9
Frame rate mode : Constant
Frame rate : 25.000 FPS
Color space : YUV
Chroma subsampling : 4:2:0
Bit depth : 8 bits
Scan type : Progressive
Bits/(Pixel*Frame) : 0.101
Stream size : 2.04 GiB (96%)

Audio
ID : 2
Format : AAC
Format/Info : Advanced Audio Codec
Format profile : LC
Codec ID : 40
Duration : 2 h 6 min
Bit rate mode : Constant
Bit rate : 93.5 kb/s
Channel(s) : 2 channels
Channel positions : Front: L R
Sampling rate : 48.0 kHz
Frame rate : 46.875 FPS (1024 spf)
Compression mode : Lossy
Stream size : 84.3 MiB (4%)
Default : Yes
Alternate group : 1


Screenshots:

BBC - Prom: David Bowie Prom (2016)

BBC - Prom: David Bowie Prom (2016)

BBC - Prom: David Bowie Prom (2016)

BBC - Prom: David Bowie Prom (2016)