BBC - Space Truckers (2017)

Posted By: notbanned
720p (HD) / HDTV
BBC - Space Truckers (2017)

BBC - Space Truckers (2017)
HDTV | 1280x720 | .MKV/AVC @ 2913 Kbps | 29 min 0 s | 618 MiB
Audio: English AAC 64 kbps, 2 channels | Subs: English
Genre: Documentary

Hard rocking, Ardglass trucker Ryan Milligan is also an extraterrestrial, Nasa scientist, and last summer he landed his dream gig - trucking precious parts of the Lofar Radio Telescope from the Netherlands to Birr in Co Offaly. The supercomputer allows European and Nasa researchers access to cutting-edge astrophysics to observe solar storms and pulsars originally discovered by Lurgan's Dame Jocelyn Bell Burnell. Ryan has to steer his way through logistics, customs, ferry timetables and Peter's playlist to avoid disappointing the brainiacs waiting for him in Ireland.

General
Unique ID : 195494192648195703412804462941066720203 (0x9312CFDC724E1F17BB593BA0FE8F73CB)
Complete name : BBC.Space.Truckers.720p.mkv
Format : Matroska
Format version : Version 4 / Version 2
File size : 618 MiB
Duration : 29 min 0 s
Overall bit rate : 2 979 kb/s

Video
ID : 1
Format : AVC
Format/Info : Advanced Video Codec
Format profile : High@L3.1
Format settings, CABAC : Yes
Format settings, ReFrames : 4 frames
Codec ID : V_MPEG4/ISO/AVC
Duration : 29 min 0 s
Bit rate : 2 913 kb/s
Width : 1 280 pixels
Height : 720 pixels
Display aspect ratio : 16:9
Frame rate mode : Constant
Frame rate : 25.000 FPS
Color space : YUV
Chroma subsampling : 4:2:0
Bit depth : 8 bits
Scan type : Progressive
Bits/(Pixel*Frame) : 0.126
Stream size : 605 MiB (98%)
Encoding settings : cabac=1 / ref=3 / deblock=1:0:0 / analyse=0x3:0x113 / me=umh / subme=9 / psy=1 / psy_rd=1.00:0.00 / mixed_ref=1 / me_range=24 / chroma_me=1 / trellis=1 / 8x8dct=1 / cqm=0 / deadzone=21,11 / fast_pskip=0 / chroma_qp_offset=-2 / threads=3 / lookahead_threads=1 / sliced_threads=0 / nr=0 / decimate=1 / interlaced=0 / bluray_compat=0 / constrained_intra=0 / bframes=6 / b_pyramid=2 / b_adapt=2 / b_bias=0 / direct=1 / weightb=1 / open_gop=0 / weightp=2 / keyint=250 / keyint_min=25 / scenecut=40 / intra_refresh=0 / rc_lookahead=40 / rc=crf / mbtree=1 / crf=20.0 / qcomp=0.60 / qpmin=0 / qpmax=69 / qpstep=4 / ip_ratio=1.40 / aq=1:1.00
Language : English
Default : Yes
Forced : No
Color range : Limited
Color primaries : BT.709
Transfer characteristics : BT.709
Matrix coefficients : BT.709

Audio
ID : 2
Format : AAC
Format/Info : Advanced Audio Codec
Format profile : HE-AAC / LC
Codec ID : A_AAC
Duration : 29 min 0 s
Bit rate : 64.0 kb/s
Channel(s) : 2 channels
Channel positions : Front: L R
Sampling rate : 48.0 kHz / 24.0 kHz
Frame rate : 23.438 FPS (1024 spf)
Compression mode : Lossy
Delay relative to video : 43 ms
Stream size : 13.3 MiB (2%)
Language : English
Default : Yes
Forced : No

Text
ID : 3
Format : UTF-8
Codec ID : S_TEXT/UTF8
Codec ID/Info : UTF-8 Plain Text
Duration : 28 min 28 s
Bit rate : 101 b/s
Count of elements : 517
Stream size : 21.1 KiB (0%)
Language : English
Default : No
Forced : No


Screenshots:

BBC - Space Truckers (2017)

BBC - Space Truckers (2017)

BBC - Space Truckers (2017)

BBC - Space Truckers (2017)