BBC - Stanley Spencer: The Colours of the Clyde (2014)

Posted By: notbanned
1080p (FullHD) / HDTV
BBC - Stanley Spencer: The Colours of the Clyde (2014)

BBC - Stanley Spencer: The Colours of the Clyde (2014)
HDTV | 1280x720 | .MKV/AVC @ 4568 Kbps | 28 min 58 s | 973 MiB
Audio: English AAC 125 kbps, 2 channels | Subs: English
Genre: Documentary

Stanley Spencer's Shipbuilding on the Clyde is one of the most astonishing - and least likely - achievements in British art. These colossal portraits of shipyard life were created by a painter best known for his intense, spiritual visions of the English countryside. World War II uprooted Spencer and sent him to Scotland. But the harsh industrial landscape of Port Glasgow inspired an astonishing vision - and revived Spencer's creative passion. Artist Lachlan Goudie - who himself has been painting in the last of the Clyde shipyards - goes in search of his hero, tracking down the original designs for Spencer's ambitious scheme, meeting the shipyard foreman who helped the eccentric Englishman with his work, and revealing how one of the 20th century's greatest artworks began as a doodle on a roll of cheap toilet paper.

General
Unique ID : 87778790278512043116231136874243470066 (0x4209947F553F57B257152C82E1F6B2F2)
Complete name : BBC.Stanley.Spencer.The.Colours.of.the.Clyde.1080p.mkv
Format : Matroska
Format version : Version 4 / Version 2
File size : 973 MiB
Duration : 28 min 58 s
Overall bit rate : 4 696 kb/s

Video
ID : 1
Format : AVC
Format/Info : Advanced Video Codec
Format profile : High@L4.1
Format settings, CABAC : Yes
Format settings, ReFrames : 4 frames
Codec ID : V_MPEG4/ISO/AVC
Duration : 28 min 58 s
Bit rate : 4 568 kb/s
Width : 1 920 pixels
Height : 1 080 pixels
Display aspect ratio : 16:9
Frame rate mode : Constant
Frame rate : 25.000 FPS
Color space : YUV
Chroma subsampling : 4:2:0
Bit depth : 8 bits
Scan type : Progressive
Bits/(Pixel*Frame) : 0.088
Stream size : 947 MiB (97%)
Encoding settings : cabac=1 / ref=4 / deblock=1:0:0 / analyse=0x3:0x113 / me=umh / subme=9 / psy=1 / psy_rd=1.00:0.00 / mixed_ref=1 / me_range=32 / chroma_me=1 / trellis=1 / 8x8dct=1 / cqm=0 / deadzone=21,11 / fast_pskip=0 / chroma_qp_offset=-2 / threads=3 / lookahead_threads=1 / sliced_threads=0 / nr=0 / decimate=1 / interlaced=0 / bluray_compat=0 / constrained_intra=0 / bframes=6 / b_pyramid=2 / b_adapt=2 / b_bias=0 / direct=1 / weightb=1 / open_gop=0 / weightp=2 / keyint=250 / keyint_min=25 / scenecut=40 / intra_refresh=0 / rc_lookahead=40 / rc=crf / mbtree=1 / crf=21.5 / qcomp=0.60 / qpmin=0 / qpmax=69 / qpstep=4 / ip_ratio=1.40 / aq=1:1.00
Language : English
Default : Yes
Forced : No
Color range : Limited
Color primaries : BT.709
Transfer characteristics : BT.709
Matrix coefficients : BT.709

Audio
ID : 2
Format : AAC
Format/Info : Advanced Audio Codec
Format profile : LC
Codec ID : A_AAC
Duration : 28 min 58 s
Bit rate : 125 kb/s
Channel(s) : 2 channels
Channel positions : Front: L R
Sampling rate : 48.0 kHz
Frame rate : 46.875 FPS (1024 spf)
Compression mode : Lossy
Delay relative to video : 9 ms
Stream size : 25.9 MiB (3%)
Language : English
Default : Yes
Forced : No

Text
ID : 3
Format : UTF-8
Codec ID : S_TEXT/UTF8
Codec ID/Info : UTF-8 Plain Text
Duration : 28 min 17 s
Bit rate : 91 b/s
Count of elements : 395
Stream size : 18.9 KiB (0%)
Language : English
Default : No
Forced : No


Screenshots:

BBC - Stanley Spencer: The Colours of the Clyde (2014)

BBC - Stanley Spencer: The Colours of the Clyde (2014)

BBC - Stanley Spencer: The Colours of the Clyde (2014)

BBC - Stanley Spencer: The Colours of the Clyde (2014)