BBC Storyville - How the Beatles Rocked the Kremlin (2009)

Posted By: notbanned
BBC Storyville - How the Beatles Rocked the Kremlin (2009)

BBC Storyville - How the Beatles Rocked the Kremlin (2009)
HDTV | 1280x720 | .MKV/AVC @ 2684 Kbps | 58 min 53 s | 1.16 GiB
Audio: English AAC 128 kbps, 2 channels | Subs: English
Genre: Documentary | History

Tells the extraordinary unknown story of how the Beatles helped to destroy the USSR. In August 1962, director Leslie Woodhead made a two-minute film in Liverpool's Cavern Club with a raw and unrecorded group of rockers called the Beatles. He arranged their first live TV appearances on a local show in Manchester and watched as the Fab Four phenomenon swept the world. Twenty-five years later while making films in Russia, Woodhead became aware of how, even though they were never able to play in the Soviet Union, the Beatles' legend had soaked into the lives of a generation of kids. This film meets the Soviet Beatles generation and hears their stories about how the Fab Four changed their lives, including Putin's deputy premier Sergei Ivanov, who explains how the Beatles helped him learn English and showed him another life.
More info


General
Unique ID : 222811663749822305885605430228276701562 (0xA79FF72C26D93F07B78746D5240B697A)
Complete name : BBC.Storyville.2009.How.the.BTells.Rocked.the.Kremlin.720p.mkv
Format : Matroska
Format version : Version 4 / Version 2
File size : 1.16 GiB
Duration : 58 min 53 s
Overall bit rate : 2 815 kb/s

Video
ID : 1
Format : AVC
Format/Info : Advanced Video Codec
Format profile : High@L3.2
Format settings, CABAC : Yes
Format settings, ReFrames : 4 frames
Codec ID : V_MPEG4/ISO/AVC
Duration : 58 min 53 s
Bit rate : 2 684 kb/s
Width : 1 280 pixels
Height : 720 pixels
Display aspect ratio : 16:9
Frame rate mode : Constant
Frame rate : 50.000 FPS
Color space : YUV
Chroma subsampling : 4:2:0
Bit depth : 8 bits
Scan type : Progressive
Bits/(Pixel*Frame) : 0.058
Stream size : 1.10 GiB (95%)
Encoding settings : cabac=1 / ref=3 / deblock=1:0:0 / analyse=0x3:0x113 / me=umh / subme=9 / psy=1 / psy_rd=1.00:0.00 / mixed_ref=1 / me_range=24 / chroma_me=1 / trellis=1 / 8x8dct=1 / cqm=0 / deadzone=21,11 / fast_pskip=0 / chroma_qp_offset=-2 / threads=3 / lookahead_threads=1 / sliced_threads=0 / nr=0 / decimate=1 / interlaced=0 / bluray_compat=0 / constrained_intra=0 / bframes=6 / b_pyramid=2 / b_adapt=2 / b_bias=0 / direct=1 / weightb=1 / open_gop=0 / weightp=2 / keyint=500 / keyint_min=50 / scenecut=40 / intra_refresh=0 / rc_lookahead=40 / rc=crf / mbtree=1 / crf=23.0 / qcomp=0.60 / qpmin=0 / qpmax=69 / qpstep=4 / ip_ratio=1.40 / aq=1:1.00
Language : English
Default : Yes
Forced : No
Color range : Limited
Color primaries : BT.709
Transfer characteristics : BT.709
Matrix coefficients : BT.709

Audio
ID : 2
Format : AAC
Format/Info : Advanced Audio Codec
Format profile : LC
Codec ID : A_AAC
Duration : 58 min 53 s
Bit rate : 128 kb/s
Channel(s) : 2 channels
Channel positions : Front: L R
Sampling rate : 48.0 kHz
Frame rate : 46.875 FPS (1024 spf)
Compression mode : Lossy
Delay relative to video : 9 ms
Stream size : 53.9 MiB (5%)
Language : English
Default : Yes
Forced : No

Text
ID : 3
Format : UTF-8
Codec ID : S_TEXT/UTF8
Codec ID/Info : UTF-8 Plain Text
Duration : 58 min 31 s
Bit rate : 69 b/s
Count of elements : 622
Stream size : 30.0 KiB (0%)
Language : English
Default : No
Forced : No


Screenshots:

BBC Storyville - How the Beatles Rocked the Kremlin (2009)

BBC Storyville - How the Beatles Rocked the Kremlin (2009)

BBC Storyville - How the Beatles Rocked the Kremlin (2009)

BBC Storyville - How the Beatles Rocked the Kremlin (2009)