BBC - Taxi Tehran (2017)

Posted By: notbanned
720p (HD) / HDTV
BBC - Taxi Tehran (2017)

BBC - Taxi Tehran (2017)
HDTV | 1280x720 | .MKV/AVC @ 2337 Kbps | 1 h 21 min | 1.42 GiB
Audio: Persian AAC 160 kbps, 2 channels | Subs: English
Genre: Documentary

Banned from making movies in Iran, director Jafar Panahi poses as a taxi driver, driving around Tehran recording the lives of its inhabitants and the difficulties they face. He is joined by a host of spirited characters, including his inquisitive young niece Hana, who is studying film-making at school.


General
Unique ID : 195796618327824554967274918270321926437 (0x934D0E992C3D47D49D23E1F7F5C9A125)
Complete name : BBC.Taxi.Tehran.720p.mkv
Format : Matroska
Format version : Version 4 / Version 2
File size : 1.42 GiB
Duration : 1 h 21 min
Overall bit rate : 2 499 kb/s

Video
ID : 1
Format : AVC
Format/Info : Advanced Video Codec
Format profile : High@L3.1
Format settings, CABAC : Yes
Format settings, ReFrames : 4 frames
Codec ID : V_MPEG4/ISO/AVC
Duration : 1 h 21 min
Bit rate : 2 337 kb/s
Width : 1 280 pixels
Height : 720 pixels
Display aspect ratio : 16:9
Frame rate mode : Constant
Frame rate : 24.000 FPS
Color space : YUV
Chroma subsampling : 4:2:0
Bit depth : 8 bits
Scan type : Progressive
Bits/(Pixel*Frame) : 0.106
Stream size : 1.32 GiB (94%)
Encoding settings : cabac=1 / ref=3 / deblock=1:0:0 / analyse=0x3:0x113 / me=umh / subme=9 / psy=1 / psy_rd=1.00:0.00 / mixed_ref=1 / me_range=24 / chroma_me=1 / trellis=1 / 8x8dct=1 / cqm=0 / deadzone=21,11 / fast_pskip=0 / chroma_qp_offset=-2 / threads=3 / lookahead_threads=1 / sliced_threads=0 / nr=0 / decimate=1 / interlaced=0 / bluray_compat=0 / constrained_intra=0 / bframes=6 / b_pyramid=2 / b_adapt=2 / b_bias=0 / direct=1 / weightb=1 / open_gop=0 / weightp=2 / keyint=240 / keyint_min=24 / scenecut=40 / intra_refresh=0 / rc_lookahead=40 / rc=crf / mbtree=1 / crf=21.0 / qcomp=0.60 / qpmin=0 / qpmax=69 / qpstep=4 / ip_ratio=1.40 / aq=1:1.00
Language : Persian
Default : Yes
Forced : No
Color range : Limited
Color primaries : BT.709
Transfer characteristics : BT.709
Matrix coefficients : BT.709

Audio
ID : 2
Format : AAC
Format/Info : Advanced Audio Codec
Format profile : HE-AAC / LC
Codec ID : A_AAC
Duration : 1 h 21 min
Bit rate : 160 kb/s
Channel(s) : 6 channels
Channel positions : Front: L C R, Side: L R, LFE
Sampling rate : 48.0 kHz / 24.0 kHz
Frame rate : 23.438 FPS (1024 spf)
Compression mode : Lossy
Delay relative to video : 43 ms
Stream size : 92.8 MiB (6%)
Language : Persian
Default : Yes
Forced : No

Text
ID : 3
Format : UTF-8
Codec ID : S_TEXT/UTF8
Codec ID/Info : UTF-8 Plain Text
Duration : 1 h 20 min
Bit rate : 1 b/s
Count of elements : 52
Stream size : 721 Bytes (0%)
Language : English
Default : No
Forced : No


Screenshots:

BBC - Taxi Tehran (2017)

BBC - Taxi Tehran (2017)

BBC - Taxi Tehran (2017)

BBC - Taxi Tehran (2017)