BBC - The Fall: The Wonderful and Frightening World of Mark E Smith (2005)

Posted By: notbanned
720p (HD) / HDTV IMDb
BBC - The Fall: The Wonderful and Frightening World of Mark E Smith (2005)

BBC - The Fall: The Wonderful and Frightening World of Mark E Smith (2005)
HDTV | 1280x720 | .MKV/AVC @ 2539 Kbps | 59 min 16 s | 1.11 GiB
Audio: English AAC 128 kbps, 2 channels | Subs: English
Genre: Documentary

A profile of one of England's truly unique and underrated bands, The Fall. One of the most enigmatic, idiosyncratic and chaotic garage bands of the last 30 years, The Fall are led by the belligerent and poetic Mark E Smith and grew out of the fringe of the Manchester punk scene. By 2005, they had released in excess of three dozen albums, toured relentlessly, inspired two successful stage plays, recorded 24 Peel Sessions, and performed with contemporary ballet dancer Michael Clark along with various spoken word events. All this has happened under the guidance of Smith with various line-ups totalling over 40 different members. They have never conformed to fashion or musical trends and when asked why they were his favourite band, John Peel replied 'they are always different, they are always the same'.

General
Unique ID : 199883294605065227798016950158405303836 (0x96601F4B880725A7C0CACEC6253A7E1C)
Complete name : BBC.The.Fall.The.Wonderful.and.Frightening.World.of.Mark.E.Smith.720p.mkv
Format : Matroska
Format version : Version 4 / Version 2
File size : 1.11 GiB
Duration : 59 min 16 s
Overall bit rate : 2 669 kb/s

Video
ID : 1
Format : AVC
Format/Info : Advanced Video Codec
Format profile : High@L3.1
Format settings, CABAC : Yes
Format settings, ReFrames : 4 frames
Codec ID : V_MPEG4/ISO/AVC
Duration : 59 min 16 s
Bit rate : 2 539 kb/s
Width : 1 280 pixels
Height : 720 pixels
Display aspect ratio : 16:9
Frame rate mode : Constant
Frame rate : 25.000 FPS
Color space : YUV
Chroma subsampling : 4:2:0
Bit depth : 8 bits
Scan type : Progressive
Bits/(Pixel*Frame) : 0.110
Stream size : 1.05 GiB (95%)
Encoding settings : cabac=1 / ref=3 / deblock=1:0:0 / analyse=0x3:0x113 / me=umh / subme=9 / psy=1 / psy_rd=1.00:0.00 / mixed_ref=1 / me_range=24 / chroma_me=1 / trellis=1 / 8x8dct=1 / cqm=0 / deadzone=21,11 / fast_pskip=0 / chroma_qp_offset=-2 / threads=3 / lookahead_threads=1 / sliced_threads=0 / nr=0 / decimate=1 / interlaced=0 / bluray_compat=0 / constrained_intra=0 / bframes=6 / b_pyramid=2 / b_adapt=2 / b_bias=0 / direct=1 / weightb=1 / open_gop=0 / weightp=2 / keyint=250 / keyint_min=25 / scenecut=40 / intra_refresh=0 / rc_lookahead=40 / rc=crf / mbtree=1 / crf=20.0 / qcomp=0.60 / qpmin=0 / qpmax=69 / qpstep=4 / ip_ratio=1.40 / aq=1:1.00
Language : English
Default : Yes
Forced : No
Color range : Limited
Color primaries : BT.709
Transfer characteristics : BT.709
Matrix coefficients : BT.709

Audio
ID : 2
Format : AAC
Format/Info : Advanced Audio Codec
Format profile : LC
Codec ID : A_AAC
Duration : 59 min 15 s
Bit rate : 128 kb/s
Channel(s) : 2 channels
Channel positions : Front: L R
Sampling rate : 48.0 kHz
Frame rate : 46.875 FPS (1024 spf)
Compression mode : Lossy
Delay relative to video : 9 ms
Stream size : 54.2 MiB (5%)
Language : English
Default : Yes
Forced : No

Text
ID : 3
Format : UTF-8
Codec ID : S_TEXT/UTF8
Codec ID/Info : UTF-8 Plain Text
Duration : 58 min 52 s
Bit rate : 98 b/s
Count of elements : 793
Stream size : 42.6 KiB (0%)
Language : English
Default : No
Forced : No


Screenshots:

BBC - The Fall: The Wonderful and Frightening World of Mark E Smith (2005)

BBC - The Fall: The Wonderful and Frightening World of Mark E Smith (2005)

BBC - The Fall: The Wonderful and Frightening World of Mark E Smith (2005)

BBC - The Fall: The Wonderful and Frightening World of Mark E Smith (2005)