BBC - The Royal Ballet: Woolf Works (2017)

Posted By: notbanned
BBC - The Royal Ballet: Woolf Works (2017)

BBC - The Royal Ballet: Woolf Works (2017)
HDTV | 1280x720 | .MKV/AVC @ 1614 Kbps | 1h 59min | 1.48 GiB
Audio: English AAC 160 kbps, 6 channels | Subs: English
Genre: Documentary

The Royal Ballet presents Wayne McGregor's triptych, inspired by the writings of Virginia Woolf, with an original score by Max Richter. Met with outstanding critical acclaim on its premiere in 2015, it went on to win McGregor the Critics' Circle Award for Best Classical Choreography and the Olivier Award for Best New Dance Production. Each of the three acts draws from one of Woolf's iconic novels - Mrs Dalloway, Orlando and The Waves - combined with elements from her letters, essays and diaries. Presented from The Royal Opera House by Darcey Bussell and Clemency Burton-Hill.


General
Unique ID : 208351394557352826355757244019134527504 (0x9CBF04DB6EE4AAD3B95E567C78B97810)
Complete name : BBC.The.Royal.Ballet.Woolf.Works.720p.mkv
Format : Matroska
Format version : Version 4 / Version 2
File size : 1.48 GiB
Duration : 1 h 59 min
Overall bit rate : 1 775 kb/s

Video
ID : 1
Format : AVC
Format/Info : Advanced Video Codec
Format profile : High@L3.1
Format settings, CABAC : Yes
Format settings, ReFrames : 4 frames
Codec ID : V_MPEG4/ISO/AVC
Duration : 1 h 59 min
Bit rate : 1 614 kb/s
Width : 1 280 pixels
Height : 720 pixels
Display aspect ratio : 16:9
Frame rate mode : Constant
Frame rate : 25.000 FPS
Color space : YUV
Chroma subsampling : 4:2:0
Bit depth : 8 bits
Scan type : Progressive
Bits/(Pixel*Frame) : 0.070
Stream size : 1.34 GiB (91%)
Encoding settings : cabac=1 / ref=3 / deblock=1:0:0 / analyse=0x3:0x113 / me=umh / subme=9 / psy=1 / psy_rd=1.00:0.00 / mixed_ref=1 / me_range=24 / chroma_me=1 / trellis=1 / 8x8dct=1 / cqm=0 / deadzone=21,11 / fast_pskip=0 / chroma_qp_offset=-2 / threads=3 / lookahead_threads=1 / sliced_threads=0 / nr=0 / decimate=1 / interlaced=0 / bluray_compat=0 / constrained_intra=0 / bframes=6 / b_pyramid=2 / b_adapt=2 / b_bias=0 / direct=1 / weightb=1 / open_gop=0 / weightp=2 / keyint=250 / keyint_min=25 / scenecut=40 / intra_refresh=0 / rc_lookahead=40 / rc=crf / mbtree=1 / crf=20.0 / qcomp=0.60 / qpmin=0 / qpmax=69 / qpstep=4 / ip_ratio=1.40 / aq=1:1.00
Language : English
Default : Yes
Forced : No
Color range : Limited
Color primaries : BT.709
Transfer characteristics : BT.709
Matrix coefficients : BT.709

Audio
ID : 2
Format : AAC
Format/Info : Advanced Audio Codec
Format profile : HE-AACv2 / HE-AAC / LC
Codec ID : A_AAC
Duration : 1 h 59 min
Bit rate : 160 kb/s
Channel(s) : 6 channels
Channel(s)_Original : 2 channels / 11 channels / 11 channels
Channel positions : Front: L R / Front: 5, Side: L R, Back: L R, LFE= 2 / Front: 5, Side: L R, Back: L R, LFE= 2
Sampling rate : 48.0 kHz / 48.0 kHz / 24.0 kHz
Frame rate : 23.438 FPS (1024 spf)
Compression mode : Lossy
Delay relative to video : 31 ms
Stream size : 136 MiB (9%)
Language : English
Default : Yes
Forced : No

Text
ID : 3
Format : UTF-8
Codec ID : S_TEXT/UTF8
Codec ID/Info : UTF-8 Plain Text
Duration : 1 h 55 min
Bit rate : 21 b/s
Count of elements : 396
Stream size : 18.0 KiB (0%)
Language : English
Default : No
Forced : No


Screenshots:

BBC - The Royal Ballet: Woolf Works (2017)

BBC - The Royal Ballet: Woolf Works (2017)

BBC - The Royal Ballet: Woolf Works (2017)

BBC - The Royal Ballet: Woolf Works (2017)