BBC The Sky at Night - In the Blink of an Eye (2017)

Posted By: notbanned
BBC The Sky at Night - In the Blink of an Eye (2017)

BBC The Sky at Night - In the Blink of an Eye (2017)
HDTV | 1920x1080 | .MKV/AVC @ 4216 Kbps | 29 min 0 s | 901 MiB
Audio: English AAC 125 kbps, 2 channels | Subs: English
Genre: Documentary

We're used to thinking that the universe operates on timescales of millions or even billions of years, where change happens with imperceptible slowness. But now we've discovered a whole catalogue of events that happen over much shorter times - seconds or even milliseconds. And these sudden, transient occurrences are among the most mysterious, powerful and destructive events in the universe. Observing them has raised exciting new questions about the way the universe works. This month The Sky at Night explores this world of transient phenomena. We hear more about the explosive event that created the recently detected gravitational wave - the collision of two neutron stars. And Chris spends 24 hours at the SWIFT space telescope base in Leicester in an attempt to detect a gamma ray burst - the most powerful and extreme short-term event known. Maggie goes to meet the team that are searching for the mysterious, barely understood transient phenomena called fast radio bursts. And Lucie Green reveals that some important short-term phenomena can occur much closer to home too. Astronomy used to be about staring up at the unchanging sky, so this search for transitory objects is truly revolutionary. It's time to enter the spectacular world of astronomy that takes place… in the blink of an eye…


General
Unique ID : 209708309932872747178376135700033284741 (0x9DC459F34BD5DB628D121D586C3BAA85)
Complete name : BBC.The.Sky.at.Night.2017.In.the.Blink.of.an.Eye.1080p.mkv
Format : Matroska
Format version : Version 4 / Version 2
File size : 901 MiB
Duration : 29 min 0 s
Overall bit rate : 4 343 kb/s

Video
ID : 1
Format : AVC
Format/Info : Advanced Video Codec
Format profile : High@L4.1
Format settings, CABAC : Yes
Format settings, ReFrames : 4 frames
Codec ID : V_MPEG4/ISO/AVC
Duration : 29 min 0 s
Bit rate : 4 216 kb/s
Width : 1 920 pixels
Height : 1 080 pixels
Display aspect ratio : 16:9
Frame rate mode : Constant
Frame rate : 25.000 FPS
Color space : YUV
Chroma subsampling : 4:2:0
Bit depth : 8 bits
Scan type : Progressive
Bits/(Pixel*Frame) : 0.081
Stream size : 875 MiB (97%)
Encoding settings : cabac=1 / ref=4 / deblock=1:0:0 / analyse=0x3:0x113 / me=umh / subme=9 / psy=1 / psy_rd=1.00:0.00 / mixed_ref=1 / me_range=32 / chroma_me=1 / trellis=1 / 8x8dct=1 / cqm=0 / deadzone=21,11 / fast_pskip=0 / chroma_qp_offset=-2 / threads=3 / lookahead_threads=1 / sliced_threads=0 / nr=0 / decimate=1 / interlaced=0 / bluray_compat=0 / constrained_intra=0 / bframes=6 / b_pyramid=2 / b_adapt=2 / b_bias=0 / direct=1 / weightb=1 / open_gop=0 / weightp=2 / keyint=250 / keyint_min=25 / scenecut=40 / intra_refresh=0 / rc_lookahead=40 / rc=crf / mbtree=1 / crf=21.0 / qcomp=0.60 / qpmin=0 / qpmax=69 / qpstep=4 / ip_ratio=1.40 / aq=1:1.00
Language : English
Default : Yes
Forced : No
Color range : Limited
Color primaries : BT.709
Transfer characteristics : BT.709
Matrix coefficients : BT.709

Audio
ID : 2
Format : AAC
Format/Info : Advanced Audio Codec
Format profile : LC
Codec ID : A_AAC
Duration : 29 min 0 s
Bit rate : 125 kb/s
Channel(s) : 2 channels
Channel positions : Front: L R
Sampling rate : 48.0 kHz
Frame rate : 46.875 FPS (1024 spf)
Compression mode : Lossy
Delay relative to video : 9 ms
Stream size : 25.9 MiB (3%)
Language : English
Default : Yes
Forced : No

Text
ID : 3
Format : UTF-8
Codec ID : S_TEXT/UTF8
Codec ID/Info : UTF-8 Plain Text
Duration : 28 min 27 s
Bit rate : 109 b/s
Count of elements : 448
Stream size : 22.8 KiB (0%)
Language : English
Default : No
Forced : No


Screenshots:

BBC The Sky at Night - In the Blink of an Eye (2017)

BBC The Sky at Night - In the Blink of an Eye (2017)

BBC The Sky at Night - In the Blink of an Eye (2017)

BBC The Sky at Night - In the Blink of an Eye (2017)