BBC - The Story of Bohemian Rhapsody (2004)

Posted By: notbanned
720p (HD) / HDTV IMDb
BBC - The Story of Bohemian Rhapsody (2004)

BBC - The Story of Bohemian Rhapsody (2004)
HDTV | 1280x720 | .MKV/AVC @ 2698 Kbps | 56 min 22 s | 1.11 GiB
Audio: English AAC 127 kbps, 2 channels | Subs: English
Genre: Documentary

The full story behind the nation's best-loved song, featuring Brian May and Roger Taylor's return to Rockfield Studios, where they rerecord the guitar and drum parts and tell the story of how the song came together. Narrated by Richard E Grant, the documentary includes exclusive rare recordings of Freddie Mercury performing the song in studio, Queen's first ever TV performance and the making of the video, as well as interviews with Mercury's friends and family, The Darkness and Bjorn Ulvaeus from Abba.

General
Unique ID : 77935150818990189618029655316429569008 (0x3AA1C399FA48E6C9E933B64B4B047BF0)
Complete name : BBC.The.Story.of.Bohemian.Rhapsody.720p.mkv
Format : Matroska
Format version : Version 4 / Version 2
File size : 1.11 GiB
Duration : 56 min 22 s
Overall bit rate : 2 829 kb/s

Video
ID : 1
Format : AVC
Format/Info : Advanced Video Codec
Format profile : High@L3.2
Format settings, CABAC : Yes
Format settings, ReFrames : 4 frames
Codec ID : V_MPEG4/ISO/AVC
Duration : 56 min 22 s
Bit rate : 2 698 kb/s
Width : 1 280 pixels
Height : 720 pixels
Display aspect ratio : 16:9
Frame rate mode : Constant
Frame rate : 50.000 FPS
Color space : YUV
Chroma subsampling : 4:2:0
Bit depth : 8 bits
Scan type : Progressive
Bits/(Pixel*Frame) : 0.059
Stream size : 1.06 GiB (95%)
Encoding settings : cabac=1 / ref=3 / deblock=1:0:0 / analyse=0x3:0x113 / me=umh / subme=9 / psy=1 / psy_rd=1.00:0.00 / mixed_ref=1 / me_range=24 / chroma_me=1 / trellis=1 / 8x8dct=1 / cqm=0 / deadzone=21,11 / fast_pskip=0 / chroma_qp_offset=-2 / threads=3 / lookahead_threads=1 / sliced_threads=0 / nr=0 / decimate=1 / interlaced=0 / bluray_compat=0 / constrained_intra=0 / bframes=6 / b_pyramid=2 / b_adapt=2 / b_bias=0 / direct=1 / weightb=1 / open_gop=0 / weightp=2 / keyint=500 / keyint_min=50 / scenecut=40 / intra_refresh=0 / rc_lookahead=40 / rc=crf / mbtree=1 / crf=20.0 / qcomp=0.60 / qpmin=0 / qpmax=69 / qpstep=4 / ip_ratio=1.40 / aq=1:1.00
Language : English
Default : Yes
Forced : No
Color range : Limited
Color primaries : BT.709
Transfer characteristics : BT.709
Matrix coefficients : BT.709

Audio
ID : 2
Format : AAC
Format/Info : Advanced Audio Codec
Format profile : LC
Codec ID : A_AAC
Duration : 56 min 22 s
Bit rate : 127 kb/s
Channel(s) : 2 channels
Channel positions : Front: L R
Sampling rate : 48.0 kHz
Frame rate : 46.875 FPS (1024 spf)
Compression mode : Lossy
Delay relative to video : 9 ms
Stream size : 51.3 MiB (4%)
Language : English
Default : Yes
Forced : No

Text
ID : 3
Format : UTF-8
Codec ID : S_TEXT/UTF8
Codec ID/Info : UTF-8 Plain Text
Duration : 56 min 17 s
Bit rate : 89 b/s
Count of elements : 865
Stream size : 37.0 KiB (0%)
Language : English
Default : No
Forced : No


Screenshots:

BBC - The Story of Bohemian Rhapsody (2004)

BBC - The Story of Bohemian Rhapsody (2004)

BBC - The Story of Bohemian Rhapsody (2004)

BBC - The Story of Bohemian Rhapsody (2004)