BBC - The Story of Fairytale of New York (2005)

Posted By: notbanned
720p (HD) / HDTV IMDb
BBC - The Story of Fairytale of New York (2005)

BBC - The Story of Fairytale of New York (2005)
HDTV | 1280x720 | .MKV/AVC @ 3347 Kbps | 56 min 8 s | 1.36 GiB
Audio: English AAC 126 kbps, 2 channels | Subs: English
Genre: Documentary

In 2005, for the first time in 18 years, all eight members of The Pogues return to the studio where their biggest hit - and the nation's favourite Christmas song - was recorded. The song's producer Steve Lillywhite strips Fairytale down to the basics, and director Peter Dougherty reveals the tricks behind the making of the video - including how a cameo from Hollywood star Matt Dillon stopped The Pogues from almost being arrested. With contributions from Matt Dillon, Nick Cave, Jools Holland and of course Shane MacGowan and The Pogues, it lifts the lid on this seminal track and reveals the secrets behind its making.

General
Unique ID : 799045972297165115336400610611712954 (0x99E4021076CC728035D32349C853BA)
Complete name : BBC.The.Story.of.Fairytale.of.New.York.720p.mkv
Format : Matroska
Format version : Version 4 / Version 2
File size : 1.36 GiB
Duration : 56 min 8 s
Overall bit rate : 3 475 kb/s

Video
ID : 1
Format : AVC
Format/Info : Advanced Video Codec
Format profile : High@L3.1
Format settings, CABAC : Yes
Format settings, ReFrames : 4 frames
Codec ID : V_MPEG4/ISO/AVC
Duration : 56 min 8 s
Bit rate : 3 347 kb/s
Width : 1 280 pixels
Height : 720 pixels
Display aspect ratio : 16:9
Frame rate mode : Constant
Frame rate : 25.000 FPS
Color space : YUV
Chroma subsampling : 4:2:0
Bit depth : 8 bits
Scan type : Progressive
Bits/(Pixel*Frame) : 0.145
Stream size : 1.31 GiB (96%)
Encoding settings : cabac=1 / ref=3 / deblock=1:0:0 / analyse=0x3:0x113 / me=umh / subme=9 / psy=1 / psy_rd=1.00:0.00 / mixed_ref=1 / me_range=24 / chroma_me=1 / trellis=1 / 8x8dct=1 / cqm=0 / deadzone=21,11 / fast_pskip=0 / chroma_qp_offset=-2 / threads=3 / lookahead_threads=1 / sliced_threads=0 / nr=0 / decimate=1 / interlaced=0 / bluray_compat=0 / constrained_intra=0 / bframes=6 / b_pyramid=2 / b_adapt=2 / b_bias=0 / direct=1 / weightb=1 / open_gop=0 / weightp=2 / keyint=250 / keyint_min=25 / scenecut=40 / intra_refresh=0 / rc_lookahead=40 / rc=crf / mbtree=1 / crf=20.0 / qcomp=0.60 / qpmin=0 / qpmax=69 / qpstep=4 / ip_ratio=1.40 / aq=1:1.00
Language : English
Default : Yes
Forced : No
Color range : Limited
Color primaries : BT.709
Transfer characteristics : BT.709
Matrix coefficients : BT.709

Audio
ID : 2
Format : AAC
Format/Info : Advanced Audio Codec
Format profile : LC
Codec ID : A_AAC
Duration : 56 min 8 s
Bit rate : 126 kb/s
Channel(s) : 2 channels
Channel positions : Front: L R
Sampling rate : 48.0 kHz
Frame rate : 46.875 FPS (1024 spf)
Compression mode : Lossy
Delay relative to video : 9 ms
Stream size : 50.6 MiB (4%)
Language : English
Default : Yes
Forced : No

Text
ID : 3
Format : UTF-8
Codec ID : S_TEXT/UTF8
Codec ID/Info : UTF-8 Plain Text
Duration : 55 min 45 s
Bit rate : 102 b/s
Count of elements : 745
Stream size : 41.7 KiB (0%)
Language : English
Default : No
Forced : No


Screenshots:

BBC - The Story of Fairytale of New York (2005)

BBC - The Story of Fairytale of New York (2005)

BBC - The Story of Fairytale of New York (2005)

BBC - The Story of Fairytale of New York (2005)