BBC This World - Murdered for Love: Samia Shahid (2018)

Posted By: notbanned
720p (HD) / HDTV
BBC This World - Murdered for Love: Samia Shahid (2018)

BBC This World - Murdered for Love: Samia Shahid (2018)
HDTV | 1280x720 | .MKV/AVC @ 1455 Kbps | 58 min 48 s | 669 MiB
Audio: English AAC 132 kbps, 2 channels | Subs: English
Genre: Documentary

On 14th July 2016, Bradford girl Samia Shahid flew to Pakistan to visit her family. Six days later she was found dead. She was 28 years old. Eight days later, her first husband and father were arrested in connection with her murder. The case was taken up by Bradford MP Naz Shah, who wrote to the prime minister of Pakistan describing the case as an honour killing. With unique access to some of Samia's closest friends, this film tells the story of Samia's life - how her arranged marriage to her cousin broke down and how her decision to divorce and re-marry for love caused a huge rift with her family. The film contains the first interview with Samia's second husband, who tells the dramatic and tragic story of Samia's return to Pakistan. Samia's father was released owing to lack of evidence. He has since died. Her first husband remains in custody and the case in Pakistan continues. He denies the allegations against him.

General
Unique ID : 330257621734182276713859421623471386902 (0xF8754DE6FF73006AB04B6B93E3513116)
Complete name : BBC.This.World.2018.Murdered.for.Love.Samia.Shahid.720p.mkv
Format : Matroska
Format version : Version 4 / Version 2
File size : 669 MiB
Duration : 58 min 48 s
Overall bit rate : 1 591 kb/s

Video
ID : 1
Format : AVC
Format/Info : Advanced Video Codec
Format profile : High@L3.1
Format settings, CABAC : Yes
Format settings, ReFrames : 4 frames
Codec ID : V_MPEG4/ISO/AVC
Duration : 58 min 48 s
Bit rate : 1 455 kb/s
Width : 1 280 pixels
Height : 720 pixels
Display aspect ratio : 16:9
Frame rate mode : Constant
Frame rate : 25.000 FPS
Color space : YUV
Chroma subsampling : 4:2:0
Bit depth : 8 bits
Scan type : Progressive
Bits/(Pixel*Frame) : 0.063
Stream size : 612 MiB (91%)
Encoding settings : cabac=1 / ref=3 / deblock=1:0:0 / analyse=0x3:0x113 / me=umh / subme=9 / psy=1 / psy_rd=1.00:0.00 / mixed_ref=1 / me_range=24 / chroma_me=1 / trellis=1 / 8x8dct=1 / cqm=0 / deadzone=21,11 / fast_pskip=0 / chroma_qp_offset=-2 / threads=3 / lookahead_threads=1 / sliced_threads=0 / nr=0 / decimate=1 / interlaced=0 / bluray_compat=0 / constrained_intra=0 / bframes=6 / b_pyramid=2 / b_adapt=2 / b_bias=0 / direct=1 / weightb=1 / open_gop=0 / weightp=2 / keyint=250 / keyint_min=25 / scenecut=40 / intra_refresh=0 / rc_lookahead=40 / rc=crf / mbtree=1 / crf=19.0 / qcomp=0.60 / qpmin=0 / qpmax=69 / qpstep=4 / ip_ratio=1.40 / aq=1:1.00
Language : English
Default : Yes
Forced : No
Color range : Limited
Color primaries : BT.709
Transfer characteristics : BT.709
Matrix coefficients : BT.709

Audio
ID : 2
Format : AAC
Format/Info : Advanced Audio Codec
Format profile : LC
Codec ID : A_AAC
Duration : 58 min 47 s
Bit rate : 132 kb/s
Channel(s) : 2 channels
Channel positions : Front: L R
Sampling rate : 48.0 kHz
Frame rate : 46.875 FPS (1024 spf)
Compression mode : Lossy
Delay relative to video : 9 ms
Stream size : 56.2 MiB (8%)
Language : English
Default : Yes
Forced : No

Text
ID : 3
Format : UTF-8
Codec ID : S_TEXT/UTF8
Codec ID/Info : UTF-8 Plain Text
Duration : 57 min 49 s
Bit rate : 65 b/s
Count of elements : 653
Stream size : 27.7 KiB (0%)
Language : English
Default : No
Forced : No


Screenshots:

BBC This World - Murdered for Love: Samia Shahid (2018)

BBC This World - Murdered for Love: Samia Shahid (2018)

BBC This World - Murdered for Love: Samia Shahid (2018)

BBC This World - Murdered for Love: Samia Shahid (2018)