BBC - Women at War: 100 Years of Service Series 1 (2017)

Posted By: notbanned
BBC - Women at War: 100 Years of Service Series 1 (2017)

BBC - Women at War: 100 Years of Service Series 1 (2017)
HDTV | 1280x720 | .MP4/AVC @ 2487 Kbps | 6x~43min | 5.15 GiB
Audio: English AAC 160 kbps, 2 channels | Subs: English
Genre: Documentary

To mark a century since women first took on roles alongside men in the armed forces, five celebrities with a connection to the military experience how things have changed in the years since.
Part 1: June Brown
Actress June Brown relives her wartime experience in the Wrens, when women were encouraged to join the war effort to 'free a man for the fleet', and takes the controls of a warship as she finds out what life is like for women serving in the Royal Navy today.

Part 2: Dame Kelly Holmes
Dame Kelly Holmes returns to the army training grounds where she enjoyed a successful career as a physical-training instructor during one of the most tumultuous periods in the history of the British Army. As she meets the first woman to become an army commando and a female WWII veteran who drove injured soldiers returning from the battlefield,

Part 3: Pam Ayres
Writer and poet Pam Ayres recalls her years in the Women's Royal Air Force in the 1960s and returns to her job as a plotter to see if she still has what it takes to work in military intelligence. As she hears how things have changed for the women serving in the RAF today, she also meets one of the few surviving female pilots from WWII.

Part 4: Edward Fox
Actor Edward Fox explores the World War II experiences of women on the home front - like his aunt Mary, who helped feed the nation by volunteering for jobs on farms - and sees for himself the vital non-combat roles performed by women during times of conflict.

Part 5: Nicky Cambell
Broadcaster Nicky Campbell discovers more about how his mother Sheila helped take on the Nazis during World War II. As he uncovers the secrets of her service with the Women's Auxiliary Air Force, finding out about her pivotal role in the D-Day landings, Nicky gets a taste of what life as a wartime radar operator would have been like for his mother.

Part 6: Compilation
Actress June Brown relives her wartime experience in the Wrens and takes the wheel of a patrol ship as she discovers what life is like for women serving in the Royal Navy.Broadcaster Nicky Campbell finds out how his mother helped take on the Nazis, and there is a proud moment for his family as her wartime service at last gets official recognition.Poet Pam Ayres returns to her role in military intelligence in the Women's Royal Air Force in the 1960s, while actor Edward Fox explores the crucial jobs women like his aunt Mary did on the home front, helping feed the nation by volunteering for jobs on farms.Dame Kelly Holmes achieves an ambition impossible during her time as an army physical training instructor, as she takes command of a Challenger 2 tank.


General
Complete name : BBC.Women.at.War.100.Years.of.Service.Series.1.1of6.June.Brown.720p.mp4
Format : MPEG-4
Format profile : Base Media
Codec ID : isom (isom)
File size : 838 MiB
Duration : 43 min 34 s
Overall bit rate mode : Variable
Overall bit rate : 2 689 kb/s

Video
ID : 1
Format : AVC
Format/Info : Advanced Video Codec
Format profile : High@L4.1
Format settings, CABAC : Yes
Format settings, ReFrames : 4 frames
Codec ID : avc1
Codec ID/Info : Advanced Video Coding
Duration : 43 min 34 s
Bit rate : 2 487 kb/s
Maximum bit rate : 9 712 kb/s
Width : 1 280 pixels
Height : 720 pixels
Display aspect ratio : 16:9
Frame rate mode : Constant
Frame rate : 25.000 FPS
Color space : YUV
Chroma subsampling : 4:2:0
Bit depth : 8 bits
Scan type : Progressive
Bits/(Pixel*Frame) : 0.108
Stream size : 787 MiB (94%)
Encoding settings : cabac=1 / ref=1 / deblock=1:0:0 / analyse=0x3:0x3 / me=dia / subme=1 / psy=1 / psy_rd=1.00:0.00 / mixed_ref=0 / me_range=16 / chroma_me=1 / trellis=0 / 8x8dct=1 / cqm=0 / deadzone=21,11 / fast_pskip=1 / chroma_qp_offset=0 / threads=6 / lookahead_threads=1 / sliced_threads=0 / nr=0 / decimate=1 / interlaced=0 / bluray_compat=0 / constrained_intra=0 / bframes=3 / b_pyramid=2 / b_adapt=1 / b_bias=0 / direct=1 / weightb=1 / open_gop=0 / weightp=1 / keyint=250 / keyint_min=25 / scenecut=40 / intra_refresh=0 / rc_lookahead=0 / rc=abr / mbtree=0 / bitrate=2487 / ratetol=1.0 / qcomp=0.60 / qpmin=0 / qpmax=69 / qpstep=4 / vbv_maxrate=62500 / vbv_bufsize=78125 / nal_hrd=none / ip_ratio=1.40 / pb_ratio=1.30 / aq=1:1.00
Encoded date : UTC 2017-11-13 00:24:16
Tagged date : UTC 2017-11-16 14:58:25
Color range : Limited
Color primaries : BT.709
Transfer characteristics : BT.709
Matrix coefficients : BT.709

Audio
ID : 2
Format : AAC
Format/Info : Advanced Audio Codec
Format profile : LC
Codec ID : 40
Duration : 43 min 34 s
Bit rate mode : Variable
Bit rate : 160 kb/s
Maximum bit rate : 305 kb/s
Channel(s) : 2 channels
Channel positions : Front: L R
Sampling rate : 48.0 kHz
Frame rate : 46.875 FPS (1024 spf)
Compression mode : Lossy
Stream size : 49.8 MiB (6%)
Encoded date : UTC 2017-11-16 14:58:21
Tagged date : UTC 2017-11-16 14:58:25

Text
ID : 3
Format : Timed Text
Codec ID : tx3g
Duration : 43 min 1 s
Bit rate mode : Variable
Bit rate : 250 b/s
Stream size : 78.8 KiB (0%)
Forced : No
Encoded date : UTC 2017-11-16 14:58:24
Tagged date : UTC 2017-11-16 14:58:25


Screenshots:

BBC - Women at War: 100 Years of Service Series 1 (2017)

BBC - Women at War: 100 Years of Service Series 1 (2017)

BBC - Women at War: 100 Years of Service Series 1 (2017)

BBC - Women at War: 100 Years of Service Series 1 (2017)