BBC - Drugs Map of Britain: Fentanyl Deadlier Than Heroin (2017)

Posted By: notbanned
BBC - Drugs Map of Britain: Fentanyl Deadlier Than Heroin (2017)

BBC - Drugs Map of Britain: Fentanyl Deadlier Than Heroin (2017)
HDTV | 1280x720 | .MP4/AVC @ 1856 Kbps | 24 min 46 s | 358 MiB
Audio: English AAC 160 kbps, 2 channels | Subs: English
Genre: Documentary

Fentanyl is on the rise in the UK. In this episode of Drugs Map of Britain, BBC Three explores the effect this drug has in Hull.
Fifty times stronger than heroin, the drug linked to the death of rock star Prince - but what's the reality for those addicted? It’s reported that Fentanyl has claimed the lives of at least 60 people in the last eight months. Primarily used as a pain reliever, we are introduced to those whose life it has taken control of, seeing the effects it has on users and what they will risk in order to get a hit, as well as what the authorities are doing to try and stop the circulation of the lethal drug.


General
Complete name : BBC.dgs.Map.of.Britain.Fentanyl.Deadlier.Than.Heroin.720p.mp4
Format : MPEG-4
Format profile : Base Media
Codec ID : isom (isom)
File size : 358 MiB
Duration : 24 min 46 s
Overall bit rate mode : Variable
Overall bit rate : 2 020 kb/s

Video
ID : 1
Format : AVC
Format/Info : Advanced Video Codec
Format profile : High@L4.1
Format settings, CABAC : Yes
Format settings, ReFrames : 4 frames
Codec ID : avc1
Codec ID/Info : Advanced Video Coding
Duration : 24 min 46 s
Bit rate : 1 856 kb/s
Maximum bit rate : 13.6 Mb/s
Width : 1 280 pixels
Height : 720 pixels
Display aspect ratio : 16:9
Frame rate mode : Variable
Frame rate : 25.000 FPS
Minimum frame rate : 8.333 FPS
Maximum frame rate : 25.000 FPS
Color space : YUV
Chroma subsampling : 4:2:0
Bit depth : 8 bits
Scan type : Progressive
Bits/(Pixel*Frame) : 0.081
Stream size : 329 MiB (92%)
Encoding settings : cabac=1 / ref=1 / deblock=1:0:0 / analyse=0x3:0x113 / me=hex / subme=2 / psy=1 / psy_rd=1.00:0.00 / mixed_ref=0 / me_range=16 / chroma_me=1 / trellis=0 / 8x8dct=1 / cqm=0 / deadzone=21,11 / fast_pskip=1 / chroma_qp_offset=0 / threads=6 / lookahead_threads=2 / sliced_threads=0 / nr=0 / decimate=1 / interlaced=0 / bluray_compat=0 / constrained_intra=0 / bframes=3 / b_pyramid=2 / b_adapt=1 / b_bias=0 / direct=1 / weightb=1 / open_gop=0 / weightp=1 / keyint=250 / keyint_min=25 / scenecut=40 / intra_refresh=0 / rc_lookahead=10 / rc=crf / mbtree=1 / crf=21.0 / qcomp=0.60 / qpmin=0 / qpmax=69 / qpstep=4 / vbv_maxrate=62500 / vbv_bufsize=78125 / crf_max=0.0 / nal_hrd=none / ip_ratio=1.40 / aq=1:1.00
Encoded date : UTC 2017-09-17 15:32:32
Tagged date : UTC 2017-09-17 16:19:00
Color range : Limited
Color primaries : BT.709
Transfer characteristics : BT.709
Matrix coefficients : BT.709

Audio
ID : 2
Format : AAC
Format/Info : Advanced Audio Codec
Format profile : LC
Codec ID : 40
Duration : 24 min 46 s
Bit rate mode : Variable
Bit rate : 160 kb/s
Maximum bit rate : 227 kb/s
Channel(s) : 2 channels
Channel positions : Front: L R
Sampling rate : 48.0 kHz
Frame rate : 46.875 FPS (1024 spf)
Compression mode : Lossy
Stream size : 28.3 MiB (8%)
Encoded date : UTC 2017-09-17 16:18:58
Tagged date : UTC 2017-09-17 16:19:00

Text
ID : 3
Format : Timed Text
Codec ID : tx3g
Duration : 24 min 25 s
Bit rate mode : Variable
Bit rate : 160 b/s
Stream size : 28.7 KiB (0%)
Forced : No
Encoded date : UTC 2017-09-17 16:19:00
Tagged date : UTC 2017-09-17 16:19:00


Screenshots:

BBC - Drugs Map of Britain: Fentanyl Deadlier Than Heroin (2017)

BBC - Drugs Map of Britain: Fentanyl Deadlier Than Heroin (2017)

BBC - Drugs Map of Britain: Fentanyl Deadlier Than Heroin (2017)

BBC - Drugs Map of Britain: Fentanyl Deadlier Than Heroin (2017)