Jackass Presents: Bad Grandpa / Bad Grandpa (2013) [Theatrical]

Posted By: Without
1080p (FullHD) / BDRip IMDb
Jackass Presents: Bad Grandpa / Bad Grandpa (2013) [Theatrical]

Jackass Presents: Bad Grandpa / Bad Grandpa (2013)
BDRip 720p | MKV | 1280x720 | AVC@5300 kb/s | English DTS@1509 kb/s
Subs: English, Polish | 6 channels | 1 h 31 min | 4.37 GB
BDRip 1080p | MKV | 1920x1080 | AVC@10.4 Mb/s | English DTS@1509 kb/s
Subs: English, Polish | 6 channels | 1 h 31 min | 7.65 GB
Genre: Comedy

86-year-old Irving Zisman takes a trip from Nebraska to North Carolina to take his 8 year-old grandson, Billy, back to his real father.

IMDB - Nominated for 1 Oscar. Another 2 wins & 9 nominations.


General
flame-jackass.presents.bad.grandpa.2013.theatrical.720p.bluray.x264.mkv
Format : Matroska
Format version : Version 4 / Version 2
File size : 4.37 GiB
Duration : 1 h 31 min
Overall bit rate : 6 812 kb/s
Encoded date : UTC 2018-03-13 15:41:23
Writing application : mkvmerge v21.0.0 ('Tardigrades Will Inherit The Earth') 64-bit
Writing library : libebml v1.3.5 + libmatroska v1.4.8

Video
ID : 1
Format : AVC
Format/Info : Advanced Video Codec
Format profile : High@L4.1
Format settings, CABAC : Yes
Format settings, ReFrames : 8 frames
Codec ID : V_MPEG4/ISO/AVC
Duration : 1 h 31 min
Bit rate : 5 300 kb/s
Width : 1 280 pixels
Height : 720 pixels
Display aspect ratio : 16:9
Frame rate mode : Constant
Frame rate : 23.976 (24000/1001) FPS
Color space : YUV
Chroma subsampling : 4:2:0
Bit depth : 8 bits
Scan type : Progressive
Bits/(Pixel*Frame) : 0.240
Stream size : 3.40 GiB (78%)
Writing library : x264 core 155 r2901 7d0ff22
Encoding settings : cabac=1 / ref=8 / deblock=1:-2:-2 / analyse=0x3:0x133 / me=umh / subme=9 / psy=1 / psy_rd=1.00:0.00 / mixed_ref=1 / me_range=16 / chroma_me=1 / trellis=2 / 8x8dct=1 / cqm=0 / deadzone=21,11 / fast_pskip=0 / chroma_qp_offset=-2 / threads=12 / lookahead_threads=1 / sliced_threads=0 / nr=0 / decimate=1 / interlaced=0 / bluray_compat=0 / constrained_intra=0 / bframes=3 / b_pyramid=2 / b_adapt=2 / b_bias=0 / direct=3 / weightb=1 / open_gop=0 / weightp=2 / keyint=250 / keyint_min=23 / scenecut=40 / intra_refresh=0 / rc_lookahead=60 / rc=2pass / mbtree=1 / bitrate=5300 / ratetol=1.0 / qcomp=0.60 / qpmin=10 / qpmax=69 / qpstep=4 / cplxblur=20.0 / qblur=0.5 / ip_ratio=1.40 / aq=1:0.70
Language : English
Default : Yes
Forced : No

Audio
ID : 2
Format : DTS
Format/Info : Digital Theater Systems
Mode : 16
Format settings, Endianness : Big
Codec ID : A_DTS
Duration : 1 h 31 min
Bit rate mode : Constant
Bit rate : 1 509 kb/s
Channel(s) : 6 channels
Channel positions : Front: L C R, Side: L R, LFE
Sampling rate : 48.0 kHz
Frame rate : 93.750 FPS (512 spf)
Bit depth : 24 bits
Compression mode : Lossy
Stream size : 992 MiB (22%)
Title : English DTS 1509 kbps
Language : English
Default : No
Forced : No

Text #1
ID : 3
Format : UTF-8
Codec ID : S_TEXT/UTF8
Codec ID/Info : UTF-8 Plain Text
Duration : 1 h 15 min
Bit rate : 2 b/s
Count of elements : 45
Stream size : 1.21 KiB (0%)
Title : English Forced
Language : English
Default : Yes
Forced : Yes

Text #2
ID : 4
Format : UTF-8
Codec ID : S_TEXT/UTF8
Codec ID/Info : UTF-8 Plain Text
Duration : 1 h 29 min
Bit rate : 67 b/s
Count of elements : 1435
Stream size : 44.3 KiB (0%)
Title : English
Language : English
Default : No
Forced : No

Text #3
ID : 5
Format : UTF-8
Codec ID : S_TEXT/UTF8
Codec ID/Info : UTF-8 Plain Text
Duration : 1 h 31 min
Bit rate : 59 b/s
Count of elements : 1463
Stream size : 39.7 KiB (0%)
Title : Polish
Language : Polish
Default : No
Forced : No

Menu
00:00:00.000 : :
00:06:47.824 : :
00:14:50.014 : :
00:20:26.391 : :
00:26:02.769 : :
00:34:37.032 : :
00:41:33.865 : :
00:49:09.570 : :
00:55:55.601 : :
01:02:14.063 : :
01:08:58.591 : :
01:16:21.784 : :
01:23:13.154 : :

General
flame-jackass.presents.bad.grandpa.2013.theatrical.1080p.bluray.x264.mkv
Format : Matroska
Format version : Version 4 / Version 2
File size : 7.65 GiB
Duration : 1 h 31 min
Overall bit rate : 11.9 Mb/s
Encoded date : UTC 2018-03-13 15:37:47
Writing application : mkvmerge v21.0.0 ('Tardigrades Will Inherit The Earth') 64-bit
Writing library : libebml v1.3.5 + libmatroska v1.4.8

Video
ID : 1
Format : AVC
Format/Info : Advanced Video Codec
Format profile : High@L4.1
Format settings, CABAC : Yes
Format settings, ReFrames : 4 frames
Codec ID : V_MPEG4/ISO/AVC
Duration : 1 h 31 min
Bit rate : 10.4 Mb/s
Width : 1 920 pixels
Height : 1 080 pixels
Display aspect ratio : 16:9
Frame rate mode : Constant
Frame rate : 23.976 (24000/1001) FPS
Color space : YUV
Chroma subsampling : 4:2:0
Bit depth : 8 bits
Scan type : Progressive
Bits/(Pixel*Frame) : 0.209
Stream size : 6.68 GiB (87%)
Writing library : x264 core 155 r2901 7d0ff22
Encoding settings : cabac=1 / ref=4 / deblock=1:-2:-2 / analyse=0x3:0x133 / me=umh / subme=9 / psy=1 / psy_rd=1.00:0.00 / mixed_ref=1 / me_range=16 / chroma_me=1 / trellis=2 / 8x8dct=1 / cqm=0 / deadzone=21,11 / fast_pskip=0 / chroma_qp_offset=-2 / threads=12 / lookahead_threads=1 / sliced_threads=0 / nr=0 / decimate=1 / interlaced=0 / bluray_compat=0 / constrained_intra=0 / bframes=3 / b_pyramid=2 / b_adapt=2 / b_bias=0 / direct=3 / weightb=1 / open_gop=0 / weightp=2 / keyint=250 / keyint_min=23 / scenecut=40 / intra_refresh=0 / rc_lookahead=60 / rc=2pass / mbtree=1 / bitrate=10412 / ratetol=1.0 / qcomp=0.60 / qpmin=10 / qpmax=69 / qpstep=4 / cplxblur=20.0 / qblur=0.5 / ip_ratio=1.40 / aq=1:0.70
Language : English
Default : Yes
Forced : No

Audio
ID : 2
Format : DTS
Format/Info : Digital Theater Systems
Mode : 16
Format settings, Endianness : Big
Codec ID : A_DTS
Duration : 1 h 31 min
Bit rate mode : Constant
Bit rate : 1 509 kb/s
Channel(s) : 6 channels
Channel positions : Front: L C R, Side: L R, LFE
Sampling rate : 48.0 kHz
Frame rate : 93.750 FPS (512 spf)
Bit depth : 24 bits
Compression mode : Lossy
Stream size : 992 MiB (13%)
Title : English DTS 1509 kbps
Language : English
Default : No
Forced : No

Text #1
ID : 3
Format : UTF-8
Codec ID : S_TEXT/UTF8
Codec ID/Info : UTF-8 Plain Text
Duration : 1 h 15 min
Bit rate : 2 b/s
Count of elements : 45
Stream size : 1.21 KiB (0%)
Title : English Forced
Language : English
Default : Yes
Forced : Yes

Text #2
ID : 4
Format : UTF-8
Codec ID : S_TEXT/UTF8
Codec ID/Info : UTF-8 Plain Text
Duration : 1 h 29 min
Bit rate : 67 b/s
Count of elements : 1435
Stream size : 44.3 KiB (0%)
Title : English
Language : English
Default : No
Forced : No

Text #3
ID : 5
Format : UTF-8
Codec ID : S_TEXT/UTF8
Codec ID/Info : UTF-8 Plain Text
Duration : 1 h 31 min
Bit rate : 59 b/s
Count of elements : 1463
Stream size : 39.7 KiB (0%)
Title : Polish
Language : Polish
Default : No
Forced : No

Menu
00:00:00.000 : :
00:06:47.824 : :
00:14:50.014 : :
00:20:26.391 : :
00:26:02.769 : :
00:34:37.032 : :
00:41:33.865 : :
00:49:09.570 : :
00:55:55.601 : :
01:02:14.063 : :
01:08:58.591 : :
01:16:21.784 : :
01:23:13.154 : :


BDRip 720p Screenshots

Jackass Presents: Bad Grandpa / Bad Grandpa (2013) [Theatrical]

Jackass Presents: Bad Grandpa / Bad Grandpa (2013) [Theatrical]

Jackass Presents: Bad Grandpa / Bad Grandpa (2013) [Theatrical]

Jackass Presents: Bad Grandpa / Bad Grandpa (2013) [Theatrical]


BDRip 1080p Screenshots

Jackass Presents: Bad Grandpa / Bad Grandpa (2013) [Theatrical]

Jackass Presents: Bad Grandpa / Bad Grandpa (2013) [Theatrical]

Jackass Presents: Bad Grandpa / Bad Grandpa (2013) [Theatrical]

Jackass Presents: Bad Grandpa / Bad Grandpa (2013) [Theatrical]


Come Visit My Blog (•‿•)