Please register here if you want to download anything!

If domain in your address bar is different from the list below
PLEASE LEAVE THAT SITE IMMEDIATELY
❗IT'S A DANGEROUS FAKE❗



Spicy Magazines for Men! ;-)

Bad Times at the El Royale (2018)

Posted By: Without
1080p (FullHD) / WEB-DL IMDb
Bad Times at the El Royale (2018)

Bad Times at the El Royale (2018)
HDRip | MKV | 720x304 | AVC@1200 kb/s | English AC3@384 kb/s | 6 channels | 2 h 22 min | 1.57 GB
WEB-DL 720p | MKV | 1280x536 | AVC@4058 kb/s | English AC3@384 kb/s | 6 channels | 2 h 21 min | 4.41 GB
WEB-DL 1080p | MKV | 1920x804 | AVC@4537 kb/s | English AC3@384 kb/s | 6 channels | 2 h 21 min | 4.89 GB
WEB-DL 1080p | MKV | 1920x800 | AVC@5538 kb/s | English AC3@640 kb/s | 6 channels | 2 h 21 min | 6.11 GB
Subs: English (6.11 GB)
Genre: Crime | Drama | Mystery | Thriller

Circa 1969, several strangers, most with a secret to bury, meet by chance at Lake Tahoe's El Royale, a rundown hotel with a dark past. Over the course of one night, everyone will show their true colors - before everything goes to hell.

IMDB - 1 win & 2 nominations.


General
Bad Times at the El Royale.2018.HDRip.XviD.AC3-EVO.avi
Format : Matroska
Format version : Version 4 / Version 2
File size : 1.57 GiB
Duration : 2 h 22 min
Overall bit rate : 1 581 kb/s
Encoded date : UTC 2018-12-18T05:15:31Z
Writing application : HandBrake 1.1.0 2018040700
Writing library : Lavf57.7.2 / Lavf57.7.2

Video
ID : 1
Format : AVC
Format/Info : Advanced Video Codec
Format profile : Main@L4
Format settings, CABAC : Yes
Format settings, ReFrames : 4 frames
Codec ID : V_MPEG4/ISO/AVC
Duration : 2 h 22 min
Bit rate : 1 200 kb/s
Width : 720 pixels
Height : 304 pixels
Display aspect ratio : 2.35:1
Frame rate mode : Constant
Frame rate : 23.976 (24000/1001) FPS
Color space : YUV
Chroma subsampling : 4:2:0
Bit depth : 8 bits
Scan type : Progressive
Bits/(Pixel*Frame) : 0.229
Stream size : 1.16 GiB (74%)
Writing library : x264 core 155 r2893 b00bcaf
Encoding settings : cabac=1 / ref=1 / deblock=1:0:0 / analyse=0x1:0x111 / me=hex / subme=2 / psy=1 / psy_rd=1.00:0.00 / mixed_ref=0 / me_range=16 / chroma_me=1 / trellis=0 / 8x8dct=0 / cqm=0 / deadzone=21,11 / fast_pskip=1 / chroma_qp_offset=0 / threads=9 / lookahead_threads=2 / sliced_threads=0 / nr=0 / decimate=1 / interlaced=0 / bluray_compat=0 / constrained_intra=0 / bframes=3 / b_pyramid=2 / b_adapt=1 / b_bias=0 / direct=1 / weightb=1 / open_gop=0 / weightp=1 / keyint=240 / keyint_min=24 / scenecut=40 / intra_refresh=0 / rc_lookahead=10 / rc=abr / mbtree=1 / bitrate=1200 / ratetol=1.0 / qcomp=0.60 / qpmin=0 / qpmax=69 / qpstep=4 / vbv_maxrate=20000 / vbv_bufsize=25000 / nal_hrd=none / filler=0 / ip_ratio=1.40 / aq=1:1.00
Default : Yes
Forced : No
Color range : Limited
Color primaries : BT.709
Transfer characteristics : BT.709
Matrix coefficients : BT.709

Audio
ID : 2
Format : AC-3
Format/Info : Audio Coding 3
Mode extension : CM (complete main)
Format settings, Endianness : Big
Codec ID : A_AC3
Duration : 2 h 22 min
Bit rate mode : Constant
Bit rate : 384 kb/s
Channel(s) : 6 channels
Channel positions : Front: L C R, Side: L R, LFE
Sampling rate : 48.0 kHz
Frame rate : 31.250 FPS (1536 spf)
Bit depth : 16 bits
Compression mode : Lossy
Delay relative to video : -43 ms
Stream size : 391 MiB (24%)
Title : Surround
Language : English
Default : Yes
Forced : No

Menu
00:00:00.043 : :Chapter 1
00:04:18.593 : :Chapter 2
00:19:21.036 : :Chapter 3
00:34:31.738 : :Chapter 4
00:49:23.754 : :Chapter 5
00:51:18.869 : :Chapter 6
01:16:00.474 : :Chapter 7
01:37:12.370 : :Chapter 8
02:03:55.721 : :Chapter 9
02:14:08.041 : :Chapter 10
02:15:44.471 : :Chapter 11


General
Bad Times at the El Royale.2018.720p.WEB-DL.H264.AC3-EVO.mkv
Format : Matroska
Format version : Version 4 / Version 2
File size : 4.41 GiB
Duration : 2 h 22 min
Overall bit rate : 4 442 kb/s
Encoded date : UTC 2018-12-18 05:08:48
Writing application : mkvmerge v14.0.0 ('Flow') 64bit
Writing library : libebml v1.3.4 + libmatroska v1.4.5

Video
ID : 2
Format : AVC
Format/Info : Advanced Video Codec
Format profile : Main@L3.1
Format settings, CABAC : No
Format settings, ReFrames : 2 frames
Codec ID : V_MPEG4/ISO/AVC
Duration : 2 h 22 min
Bit rate : 4 058 kb/s
Width : 1 280 pixels
Height : 536 pixels
Display aspect ratio : 2.40:1
Frame rate mode : Constant
Frame rate : 23.976 FPS
Color space : YUV
Chroma subsampling : 4:2:0
Bit depth : 8 bits
Scan type : Progressive
Bits/(Pixel*Frame) : 0.247
Stream size : 4.03 GiB (91%)
Language : English
Default : Yes
Forced : No
Color range : Limited
Color primaries : BT.709
Transfer characteristics : BT.709
Matrix coefficients : BT.709

Audio
ID : 1
Format : AC-3
Format/Info : Audio Coding 3
Mode extension : CM (complete main)
Format settings, Endianness : Big
Codec ID : A_AC3
Duration : 2 h 21 min
Bit rate mode : Constant
Bit rate : 384 kb/s
Channel(s) : 6 channels
Channel positions : Front: L C R, Side: L R, LFE
Sampling rate : 48.0 kHz
Frame rate : 31.250 FPS (1536 spf)
Bit depth : 16 bits
Compression mode : Lossy
Delay relative to video : -43 ms
Stream size : 389 MiB (9%)
Language : English
Default : Yes
Forced : No

Menu
00:00:00.000 : en:Chapter 01
00:04:18.591 : en:Chapter 02
00:19:20.992 : en:Chapter 03
00:34:31.736 : en:Chapter 04
00:49:23.710 : en:Chapter 05
00:51:18.865 : en:Chapter 06
01:16:00.471 : en:Chapter 07
01:37:12.366 : en:Chapter 08
02:03:55.719 : en:Chapter 09
02:14:08.038 : en:Chapter 10
02:15:44.425 : en:Chapter 11


General
Bad.Times.at.the.El.Royale.2018.1080p.WEB-DL.DD5.1.H264-CMRG.mkv
Format : Matroska
Format version : Version 4 / Version 2
File size : 4.89 GiB
Duration : 2 h 22 min
Overall bit rate : 4 921 kb/s
Movie name : CMRG
Encoded date : UTC 2018-12-18 05:05:18
Writing application : mkvmerge v11.0.0 ('Alive') 64bit
Writing library : libebml v1.3.4 + libmatroska v1.4.5

Video
ID : 1
Format : AVC
Format/Info : Advanced Video Codec
Format profile : High@L4
Format settings, CABAC : Yes
Format settings, ReFrames : 5 frames
Codec ID : V_MPEG4/ISO/AVC
Duration : 2 h 22 min
Bit rate : 4 537 kb/s
Width : 1 920 pixels
Height : 804 pixels
Display aspect ratio : 2.40:1
Frame rate mode : Constant
Frame rate : 23.976 (24000/1001) FPS
Color space : YUV
Chroma subsampling : 4:2:0
Bit depth : 8 bits
Scan type : Progressive
Bits/(Pixel*Frame) : 0.123
Stream size : 4.51 GiB (92%)
Language : English
Default : Yes
Forced : No
Color range : Limited
Color primaries : BT.709
Transfer characteristics : BT.709
Matrix coefficients : BT.709

Audio
ID : 2
Format : AC-3
Format/Info : Audio Coding 3
Mode extension : CM (complete main)
Format settings, Endianness : Big
Codec ID : A_AC3
Duration : 2 h 21 min
Bit rate mode : Constant
Bit rate : 384 kb/s
Channel(s) : 6 channels
Channel positions : Front: L C R, Side: L R, LFE
Sampling rate : 48.0 kHz
Frame rate : 31.250 FPS (1536 spf)
Bit depth : 16 bits
Compression mode : Lossy
Delay relative to video : -43 ms
Stream size : 389 MiB (8%)
Language : English
Default : Yes
Forced : No

Menu
00:00:00.000 : en:Chapter 01
00:04:18.591 : en:Chapter 02
00:19:20.993 : en:Chapter 03
00:34:31.737 : en:Chapter 04
00:49:23.712 : en:Chapter 05
00:51:18.868 : en:Chapter 06
01:16:00.474 : en:Chapter 07
01:37:12.370 : en:Chapter 08
02:03:55.723 : en:Chapter 09
02:14:08.043 : en:Chapter 10
02:15:44.431 : en:Chapter 11


General
Bad.Times.at.the.El.Royale.2018.1080p.AMZN.WEB-DL.DDP5.1.H.264-NTG.mkv
Format : Matroska
Format version : Version 4 / Version 2
File size : 6.11 GiB
Duration : 2 h 21 min
Overall bit rate : 6 180 kb/s
Encoded date : UTC 2018-12-18 08:28:25
Writing application : mkvmerge v21.0.0 ('Tardigrades Will Inherit The Earth') 64-bit
Writing library : libebml v1.3.5 + libmatroska v1.4.8

Video
ID : 1
Format : AVC
Format/Info : Advanced Video Codec
Format profile : High@L4
Format settings, CABAC : Yes
Format settings, ReFrames : 4 frames
Codec ID : V_MPEG4/ISO/AVC
Duration : 2 h 21 min
Bit rate : 5 538 kb/s
Width : 1 920 pixels
Height : 800 pixels
Display aspect ratio : 2.40:1
Frame rate mode : Constant
Frame rate : 23.976 (24000/1001) FPS
Color space : YUV
Chroma subsampling : 4:2:0
Bit depth : 8 bits
Scan type : Progressive
Bits/(Pixel*Frame) : 0.150
Stream size : 5.48 GiB (90%)
Default : Yes
Forced : No
Color range : Limited
Color primaries : BT.709
Transfer characteristics : BT.709
Matrix coefficients : BT.709

Audio
ID : 2
Format : E-AC-3
Format/Info : Enhanced Audio Coding 3
Format settings, Endianness : Big
Codec ID : A_EAC3
Duration : 2 h 21 min
Bit rate mode : Constant
Bit rate : 640 kb/s
Channel(s) : 6 channels
Channel positions : Front: L C R, Side: L R, LFE
Sampling rate : 48.0 kHz
Frame rate : 187.500 FPS (256 spf)
Compression mode : Lossy
Stream size : 648 MiB (10%)
Language : English
Default : Yes
Forced : No

Text
ID : 3
Format : UTF-8
Codec ID : S_TEXT/UTF8
Codec ID/Info : UTF-8 Plain Text
Duration : 2 h 20 min
Bit rate : 44 b/s
Count of elements : 1711
Stream size : 45.6 KiB (0%)
Title : SDH
Language : English
Default : No
Forced : No



HDRip Screenshots

Bad Times at the El Royale (2018)

Bad Times at the El Royale (2018)

Bad Times at the El Royale (2018)


WEB-DL 720p Screenshots

Bad Times at the El Royale (2018)

Bad Times at the El Royale (2018)

Bad Times at the El Royale (2018)


WEB-DL 1080p Screenshots

Bad Times at the El Royale (2018)

Bad Times at the El Royale (2018)

Bad Times at the El Royale (2018)


WEB-DL 1080p (6.11 GB) Screenshots

Bad Times at the El Royale (2018)

Bad Times at the El Royale (2018)

Bad Times at the El Royale (2018)


Come Visit My Blog (•‿•)