Ballet 422 (2014)

Posted By: Tavaz
1080p (FullHD) / BDRip IMDb
Ballet 422 (2014)

Ballet 422 (2014)
BDRip | MKV | 1920x1080 | English | H264 @ 9629 kbps | DTS @ 768 kbps | 1 h 15 min | 5.46 GiB
Genre: Documentary, Music, Sport

From first rehearsal to world premiere, Ballet 422 takes us backstage at New York City Ballet as emerging choreographer Justin Peck crafts a new work.

Ballet.422.2014.LIMITED.1080p.BluRay.x264-GECKOS.idx (38.7 KB)
Ballet.422.2014.LIMITED.1080p.BluRay.x264-GECKOS.sub (5.4 MB)
Ballet.422.2014.LIMITED.1080p.BluRay.x264-GECKOS.mkv (5.5 GB)
ballet.422.2014.limited.1080p.bluray.x264-geckos.sample.mkv (65.8 MB)



General
Unique ID : 252139557659134744123849161707986626788 (0xBDB04FFB26F484B298B1AD7A357428E4)
Complete name : ./Ballet.422.2014.LIMITED.1080p.BluRay.x264-GECKOS.mkv
Format : Matroska
Format version : Version 4 / Version 2
File size : 5.46 GiB
Duration : 1 h 15 min
Overall bit rate : 10.4 Mb/s
Encoded date : UTC 2015-05-13 20:36:21
Writing application : mkvmerge v6.2.0 ('Promised Land') built on Apr 28 2013 12:22:01
Writing library : libebml v1.3.0 + libmatroska v1.4.0

Video
ID : 1
Format : AVC
Format/Info : Advanced Video Codec
Format profile : High@L4.1
Format settings : CABAC / 4 Ref Frames
Format settings, CABAC : Yes
Format settings, RefFrames : 4 frames
Codec ID : V_MPEG4/ISO/AVC
Duration : 1 h 15 min
Bit rate : 9 629 kb/s
Width : 1 920 pixels
Height : 1 080 pixels
Display aspect ratio : 16:9
Frame rate mode : Constant
Frame rate : 23.976 FPS
Color space : YUV
Chroma subsampling : 4:2:0
Bit depth : 8 bits
Scan type : Progressive
Bits/(Pixel*Frame) : 0.194
Stream size : 4.95 GiB (91%)
Writing library : x264 core 144 r2525 40bb568
Encoding settings : cabac=1 / ref=4 / deblock=1:0:0 / analyse=0x3:0x133 / me=umh / subme=7 / psy=1 / psy_rd=1.00:0.00 / mixed_ref=1 / me_range=16 / chroma_me=1 / trellis=1 / 8x8dct=1 / cqm=0 / deadzone=21,11 / fast_pskip=0 / chroma_qp_offset=-2 / threads=60 / lookahead_threads=8 / sliced_threads=0 / nr=0 / decimate=1 / interlaced=0 / bluray_compat=0 / constrained_intra=0 / bframes=3 / b_pyramid=2 / b_adapt=1 / b_bias=0 / direct=1 / weightb=1 / open_gop=0 / weightp=2 / keyint=250 / keyint_min=23 / scenecut=40 / intra_refresh=0 / rc_lookahead=40 / rc=2pass / mbtree=1 / bitrate=9629 / ratetol=1.0 / qcomp=0.60 / qpmin=0 / qpmax=69 / qpstep=4 / cplxblur=20.0 / qblur=0.5 / ip_ratio=1.40 / aq=1:1.00
Language : English
Default : Yes
Forced : No

Audio
ID : 2
Format : DTS
Format/Info : Digital Theater Systems
Mode : 16
Format settings, Endianness : Big
Codec ID : A_DTS
Duration : 1 h 15 min
Bit rate mode : Constant
Bit rate : 768 kb/s
Channel(s) : 6 channels
Channel positions : Front: L C R, Side: L R, LFE
Sampling rate : 48.0 kHz
Frame rate : 93.750 FPS (512 SPF)
Bit depth : 24 bits
Compression mode : Lossy
Stream size : 413 MiB (7%)
Language : English
Default : Yes
Forced : No

Menu
00:00:00.000 : en:00:00:00.000
00:06:56.333 : en:00:06:56.333
00:12:04.682 : en:00:12:04.682
00:19:18.407 : en:00:19:18.407
00:25:11.510 : en:00:25:11.510
00:31:11.953 : en:00:31:11.953
00:37:42.719 : en:00:37:42.719
00:44:41.554 : en:00:44:41.554
00:50:05.127 : en:00:50:05.127
00:56:04.736 : en:00:56:04.736
01:02:44.219 : en:01:02:44.219
01:09:50.019 : en:01:09:50.019





Ballet 422 (2014)


Ballet 422 (2014)


Ballet 422 (2014)


Ballet 422 (2014)


Ballet 422 (2014)