Batman: Bad Blood (2016)

Posted By: Tavaz
1080p (FullHD) / BDRip IMDb
Batman: Bad Blood (2016)

Batman: Bad Blood (2016)
BDRip | MKV | 1920x1080 | English / Turkish | H264 @ 8340 kbps | DTS @ 1509 kbps | 1 h 12 min | 5.10 GiB
Subtitles: Turkish, English
Genre: Action, Animation, Science Fiction

Bruce Wayne is missing. Alfred covers for him while Nightwing and Robin patrol Gotham City in his stead. And a new player, Batwoman, investigates Batman's disappearance.

1baf7fc6fd7840ba8caa6edb92d004aa.mkv (5.1 GB)



General
Unique ID : 52561971333485140192631339456608916876 (0x278B114494D2EB4D752F4BEDE35CD58C)
Complete name : ./1baf7fc6fd7840ba8caa6edb92d004aa.mkv
Format : Matroska
Format version : Version 4 / Version 2
File size : 5.10 GiB
Duration : 1 h 12 min
Overall bit rate : 10.0 Mb/s
Encoded date : UTC 2018-03-02 15:14:55
Writing application : mkvmerge v21.0.0 ('Tardigrades Will Inherit The Earth') 64-bit
Writing library : libebml v1.3.5 + libmatroska v1.4.8

Video
ID : 1
Format : AVC
Format/Info : Advanced Video Codec
Format profile : High@L4.1
Format settings : CABAC / 3 Ref Frames
Format settings, CABAC : Yes
Format settings, RefFrames : 3 frames
Codec ID : V_MPEG4/ISO/AVC
Duration : 1 h 12 min
Bit rate : 8 340 kb/s
Width : 1 920 pixels
Height : 1 080 pixels
Display aspect ratio : 16:9
Frame rate mode : Constant
Frame rate : 23.976 (24000/1001) FPS
Color space : YUV
Chroma subsampling : 4:2:0
Bit depth : 8 bits
Scan type : Progressive
Bits/(Pixel*Frame) : 0.168
Stream size : 4.23 GiB (83%)
Title : PRoDJi
Writing library : x264 core 155 r2901 7d0ff22
Encoding settings : cabac=1 / ref=4 / deblock=1:1:1 / analyse=0x3:0x113 / me=umh / subme=7 / psy=1 / psy_rd=0.40:0.00 / mixed_ref=1 / me_range=24 / chroma_me=1 / trellis=2 / 8x8dct=1 / cqm=2 / deadzone=21,11 / fast_pskip=1 / chroma_qp_offset=-5 / threads=12 / lookahead_threads=3 / sliced_threads=0 / nr=0 / decimate=1 / interlaced=0 / bluray_compat=0 / constrained_intra=0 / bframes=5 / b_pyramid=1 / b_adapt=2 / b_bias=2 / direct=3 / weightb=1 / open_gop=0 / weightp=2 / keyint=230 / keyint_min=22 / scenecut=40 / intra_refresh=0 / rc_lookahead=40 / rc=2pass / mbtree=1 / bitrate=8340 / ratetol=1.0 / qcomp=0.60 / qpmin=10 / qpmax=41 / qpstep=4 / cplxblur=20.0 / qblur=0.5 / ip_ratio=1.40 / aq=1:0.60
Language : English
Default : Yes
Forced : No

Audio #1
ID : 2
Format : DTS
Format/Info : Digital Theater Systems
Mode : 16
Format settings, Endianness : Big
Codec ID : A_DTS
Duration : 1 h 12 min
Bit rate mode : Constant
Bit rate : 1 509 kb/s
Channel(s) : 6 channels
Channel positions : Front: L C R, Side: L R, LFE
Sampling rate : 48.0 kHz
Frame rate : 93.750 FPS (512 SPF)
Bit depth : 24 bits
Compression mode : Lossy
Stream size : 785 MiB (15%)
Title : English DTS@1509Kbps 6 chnls
Language : English
Default : Yes
Forced : No

Audio #2
ID : 3
Format : AC-3
Format/Info : Audio Coding 3
Format settings, Endianness : Big
Codec ID : A_AC3
Duration : 1 h 12 min
Bit rate mode : Constant
Bit rate : 192 kb/s
Channel(s) : 2 channels
Channel positions : Front: L R
Sampling rate : 48.0 kHz
Frame rate : 31.250 FPS (1536 SPF)
Bit depth : 16 bits
Compression mode : Lossy
Delay relative to video : 12 ms
Stream size : 99.8 MiB (2%)
Title : 192Kbps 2 chnls AC3 Turkish
Language : Turkish
Service kind : Complete Main
Default : No
Forced : No

Text #1
ID : 4
Format : UTF-8
Codec ID : S_TEXT/UTF8
Codec ID/Info : UTF-8 Plain Text
Duration : 1 h 7 min
Bit rate : 48 b/s
Count of elements : 614
Stream size : 24.2 KiB (0%)
Language : English
Default : Yes
Forced : No

Text #2
ID : 5
Format : UTF-8
Codec ID : S_TEXT/UTF8
Codec ID/Info : UTF-8 Plain Text
Duration : 1 h 9 min
Bit rate : 50 b/s
Count of elements : 715
Stream size : 25.7 KiB (0%)
Language : Turkish
Default : No
Forced : No

Menu
00:00:00.000 : en:00:00:00.000
00:05:13.897 : en:00:05:13.897
00:12:40.301 : en:00:12:40.301
00:19:07.229 : en:00:19:07.229
00:29:44.116 : en:00:29:44.116
00:40:32.847 : en:00:40:32.847
00:48:04.465 : en:00:48:04.465
01:00:26.998 : en:01:00:26.998
01:09:33.086 : en:01:09:33.086





Batman: Bad Blood (2016)


Batman: Bad Blood (2016)


Batman: Bad Blood (2016)


Batman: Bad Blood (2016)


Batman: Bad Blood (2016)