Batman & Mr. Freeze: SubZero (1998)

Posted By: Tavaz
1080p (FullHD) / BDRip IMDb
Batman & Mr. Freeze: SubZero (1998)

Batman & Mr. Freeze: SubZero (1998)
BDRip | MKV | 1436x1080 | English / Turkish | H264 @ 6188 kbps | FLAC @ 615 kbps | 1 h 6 min | 3.26 GiB
Subtitles: Turkish, English
Genre: Action, Animation, Crime

When a desperate Mr. Freeze, to save his dying wife, kidnaps Barbara (Batgirl) Gordon as an involuntary organ donor, Batman and Robin must find her before the operation can begin.

77324cc37f7b48bb976ec07643f624db.mkv (3.3 GB)



General
Unique ID : 160559196205049462458155315393600127286 (0x78CA938DC20A922023B18978E6578136)
Complete name : ./77324cc37f7b48bb976ec07643f624db.mkv
Format : Matroska
Format version : Version 4 / Version 2
File size : 3.26 GiB
Duration : 1 h 6 min
Overall bit rate mode : Variable
Overall bit rate : 7 001 kb/s
Encoded date : UTC 2018-04-09 13:11:11
Writing application : mkvmerge v22.0.0 ('At The End Of The World') 64-bit
Writing library : libebml v1.3.5 + libmatroska v1.4.8

Video
ID : 1
Format : AVC
Format/Info : Advanced Video Codec
Format profile : High@L4.1
Format settings : CABAC / 3 Ref Frames
Format settings, CABAC : Yes
Format settings, RefFrames : 3 frames
Codec ID : V_MPEG4/ISO/AVC
Duration : 1 h 6 min
Bit rate : 6 188 kb/s
Width : 1 436 pixels
Height : 1 080 pixels
Display aspect ratio : 4:3
Frame rate mode : Constant
Frame rate : 23.976 (24000/1001) FPS
Color space : YUV
Chroma subsampling : 4:2:0
Bit depth : 8 bits
Scan type : Progressive
Bits/(Pixel*Frame) : 0.166
Stream size : 2.88 GiB (88%)
Title : PRoDJi
Writing library : x264 core 155 r2901 7d0ff22
Encoding settings : cabac=1 / ref=3 / deblock=1:0:0 / analyse=0x3:0x113 / me=umh / subme=7 / psy=1 / psy_rd=1.00:0.00 / mixed_ref=1 / me_range=24 / chroma_me=1 / trellis=2 / 8x8dct=1 / cqm=2 / deadzone=21,11 / fast_pskip=1 / chroma_qp_offset=-5 / threads=12 / lookahead_threads=2 / sliced_threads=0 / nr=0 / decimate=1 / interlaced=0 / bluray_compat=0 / constrained_intra=0 / bframes=3 / b_pyramid=1 / b_adapt=2 / b_bias=2 / direct=3 / weightb=1 / open_gop=0 / weightp=2 / keyint=230 / keyint_min=22 / scenecut=40 / intra_refresh=0 / rc_lookahead=40 / rc=2pass / mbtree=1 / bitrate=6188 / ratetol=1.0 / qcomp=0.60 / qpmin=10 / qpmax=41 / qpstep=4 / cplxblur=20.0 / qblur=0.5 / ip_ratio=1.40 / aq=1:1.00
Language : English
Default : Yes
Forced : No

Audio #1
ID : 2
Format : FLAC
Format/Info : Free Lossless Audio Codec
Codec ID : A_FLAC
Duration : 1 h 6 min
Bit rate mode : Variable
Bit rate : 616 kb/s
Channel(s) : 2 channels
Channel positions : Front: L R
Sampling rate : 48.0 kHz
Frame rate : 11.719 FPS (4096 SPF)
Bit depth : 16 bits
Stream size : 293 MiB (9%)
Title : FLAC (English) / 616 Kbps / 2.0
Writing library : libFLAC 1.2.1 (UTC 2007-09-17)
Language : English
Default : Yes
Forced : No

Audio #2
ID : 3
Format : AC-3
Format/Info : Audio Coding 3
Format settings, Endianness : Big
Codec ID : A_AC3
Duration : 1 h 6 min
Bit rate mode : Constant
Bit rate : 192 kb/s
Channel(s) : 2 channels
Channel positions : Front: L R
Sampling rate : 48.0 kHz
Frame rate : 31.250 FPS (1536 SPF)
Bit depth : 16 bits
Compression mode : Lossy
Delay relative to video : 12 ms
Stream size : 91.2 MiB (3%)
Title : 192Kbps 2 chnls AC3 Turkish
Language : Turkish
Service kind : Complete Main
Default : No
Forced : No

Text #1
ID : 4
Format : UTF-8
Codec ID : S_TEXT/UTF8
Codec ID/Info : UTF-8 Plain Text
Duration : 59 min 49 s
Bit rate : 40 b/s
Count of elements : 703
Stream size : 17.7 KiB (0%)
Language : English
Default : Yes
Forced : No

Text #2
ID : 5
Format : UTF-8
Codec ID : S_TEXT/UTF8
Codec ID/Info : UTF-8 Plain Text
Duration : 1 h 1 min
Bit rate : 40 b/s
Count of elements : 761
Stream size : 18.4 KiB (0%)
Title : SDH
Language : English
Default : No
Forced : No

Text #3
ID : 6
Format : UTF-8
Codec ID : S_TEXT/UTF8
Codec ID/Info : UTF-8 Plain Text
Duration : 1 h 1 min
Bit rate : 39 b/s
Count of elements : 446
Stream size : 17.5 KiB (0%)
Language : Turkish
Default : No
Forced : No

Menu
00:00:00.000 : en:Chapter 1
00:02:14.926 : en:Chapter 2
00:05:28.745 : en:Chapter 3
00:07:46.299 : en:Chapter 4
00:11:32.900 : en:Chapter 5
00:13:45.199 : en:Chapter 6
00:16:50.843 : en:Chapter 7
00:19:30.502 : en:Chapter 8
00:21:30.956 : en:Chapter 9
00:25:22.854 : en:Chapter 10
00:29:10.915 : en:Chapter 11
00:32:27.195 : en:Chapter 12
00:37:29.664 : en:Chapter 13
00:38:53.664 : en:Chapter 14
00:43:33.819 : en:Chapter 15
00:46:13.729 : en:Chapter 16
00:52:40.282 : en:Chapter 17
00:54:31.935 : en:Chapter 18
00:57:53.636 : en:Chapter 19
01:00:57.737 : en:Chapter 20
01:02:30.872 : en:Chapter 21





Batman & Mr. Freeze: SubZero (1998)


Batman & Mr. Freeze: SubZero (1998)


Batman & Mr. Freeze: SubZero (1998)


Batman & Mr. Freeze: SubZero (1998)


Batman & Mr. Freeze: SubZero (1998)