Bear Grylls Extreme Survival Caught on Camera S01E03-E04 (2014)

Posted By: vivid23
Bear Grylls Extreme Survival Caught on Camera S01E03-E04 (2014)

Bear Grylls Extreme Survival Caught on Camera S01E03-E04 (2014)
HDTV | 1280x720 | MKV/x264 @ 3379 Kbps | 2x21mn | Audio: English AC3 384 kbps, 6 channels | Subs: None | 2x599 MB
Genre: Documentary

In the brand new series BEAR GRYLLS: EXTREME SURVIVAL CAUGHT ON CAMERA presents some of the most jaw-dropping footage of great escapes and near-death experiences. In each episode, survivors share their stories, experts provide survival tips with ‘how to’ advice and Bear chooses his favourite clip of the episode. From parachutes that don’t open to bungee cords that snap, to elephant attacks and runaway cars – in each episode Bear will introduce clips of jaw-dropping great escapes filmed by the public, in moments of extreme danger. Whether it was due to sheer quick thinking, feats of endurance or just pure luck, the experts will explain exactly how these great escapes took place.

More info

Season 1, Episode 3 – “Snow”
Bear learns from survivors of those caught up in accidents involving snow have survied.

Season 1, Episode 4 – “Roads”
Bear meets people who have survived serious car crash injuries

Video
ID : 1
Format : AVC
Format/Info : Advanced Video Codec
Format profile : High@L4.1
Format settings, CABAC : Yes
Format settings, ReFrames : 5 frames
Codec ID : V_MPEG4/ISO/AVC
Duration : 21mn 48s
Bit rate : 3 379 Kbps
Width : 1 280 pixels
Height : 720 pixels
Display aspect ratio : 16:9
Frame rate : 25.000 fps
Color space : YUV
Chroma subsampling : 4:2:0
Bit depth : 8 bits
Scan type : Progressive
Bits/(Pixel*Frame) : 0.147
Stream size : 527 MiB (88%)
Writing library : x264 core 142 r2409 d6b4e63
Encoding settings : cabac=1 / ref=5 / deblock=1:-2:-2 / analyse=0x3:0x113 / me=umh / subme=8 / psy=1 / psy_rd=1.00:0.00 / mixed_ref=1 / me_range=16 / chroma_me=1 / trellis=1 / 8x8dct=1 / cqm=0 / deadzone=21,11 / fast_pskip=1 / chroma_qp_offset=-2 / threads=18 / lookahead_threads=3 / sliced_threads=0 / nr=0 / decimate=1 / interlaced=0 / bluray_compat=0 / constrained_intra=0 / bframes=3 / b_pyramid=2 / b_adapt=2 / b_bias=0 / direct=3 / weightb=1 / open_gop=0 / weightp=2 / keyint=250 / keyint_min=25 / scenecut=40 / intra_refresh=0 / rc_lookahead=50 / rc=crf / mbtree=1 / crf=21.0 / qcomp=0.60 / qpmin=0 / qpmax=69 / qpstep=4 / ip_ratio=1.40 / aq=1:1.00

Audio
ID : 2
Format : AC-3
Format/Info : Audio Coding 3
Mode extension : CM (complete main)
Codec ID : A_AC3
Duration : 21mn 48s
Bit rate mode : Constant
Bit rate : 384 Kbps
Channel(s) : 6 channels
Channel positions : Front: L C R, Side: L R, LFE
Sampling rate : 48.0 KHz
Bit depth : 16 bits
Compression mode : Lossy
Video delay : 96ms
Stream size : 59.9 MiB (10%)
Language : English


Bear Grylls Extreme Survival Caught on Camera S01E03-E04 (2014)

Bear Grylls Extreme Survival Caught on Camera S01E03-E04 (2014)